imdb
rating

7.5
We Need to Talk About Kevin

We Need to Talk About Kevin (2011)

Drama, Thriller

Full description

We Need to Talk about Kevin 2011 DVDrip English Klam

Size 1.681 GB   4 seeders     Added 2013-01-23 22:53:47

Stream torrent
Starting‥ You need BitLord! Get it from 1BitLord.com
To download or stream you need BitLord. Visit them at BitLord.com
With: Tilda Swinton, John C. Reilly and Ezra Miller

Bij de geboorte van Kevin heeft Eva haar professionele leven en persoonlijke ambities op een laag pitje gezet. De communicatie tussen moeder en zoon verloopt moeizaam. Aan de vooravond van zijn 16de verjaardag pleegt Kevin een onherstelbare daad. Eva probeert erachter te komen of zij ervoor verantwoordelijk is. We Need to Talk about Kevin is de aangrijpende zoektocht van een moeder naar het antwoord op de vraag of het karakter van haar kind aangeboren of aangeleerd is.

Kevin's mother struggles to love her strange child, despite the increasingly vicious things he says and does as he grows up. But Kevin is just getting started, and his final act will be beyond anything anyone imagined. 
 
http://www.imdb.com/title/tt1242460	

------------------------ Dutch Friends ------------------------
---------------------------------------------------------------
- Bezoek ook eens mijn vrienden op:  http://www.Film-Test.nl --
----- voor mijn Nederlandse Sync. ondertitels ---- en meer ----
------- http://www.Film-Test.nl ---- Over Films en meer -------
---------------------------------------------------------------

General:

Complete name                    : We Need to Talk about KevinWe Need to Talk about Kevin.avi
Format                           : AVI
Format/Info                      : Audio Video Interleave
File size                        : 1.56 GiB
Duration                         : 1h 47mn
Overall bit rate                 : 2 075 Kbps

Video:

Format                           : MPEG-4 Visual
Format profile                   : Simple@L3
Format settings, BVOP            : No
Format settings, QPel            : No
Format settings, GMC             : No warppoints
Format settings, Matrix          : Default (H.263)
Codec ID                         : XVID
Codec ID/Hint                    : XviD
Duration                         : 1h 47mn
Bit rate                         : 1 616 Kbps
Width                            : 720 pixels
Height                           : 304 pixels
Display aspect ratio             : 2.35:1
Frame rate                       : 25.000 fps
Color space                      : YUV
Chroma subsampling               : 4:2:0
Bit depth                        : 8 bits
Scan type                        : Progressive
Compression mode                 : Lossy
Bits/(Pixel*Frame)               : 0.295
Stream size                      : 1.21 GiB (78%)
Writing library                  : XviD 1.1.2 (UTC 2006-11-01)

Audio:

Format                           : AC-3
Format/Info                      : Audio Coding 3
Mode extension                   : CM (complete main)
Codec ID                         : 2000
Duration                         : 1h 47mn
Bit rate mode                    : Constant
Bit rate                         : 448 Kbps
Channel(s)                       : 6 channels
Channel positions                : Front: L C R, Side: L R, LFE
Sampling rate                    : 48.0 KHz
Bit depth                        : 16 bits
Compression mode                 : Lossy
Stream size                      : 344 MiB (22%)
Alignment                        : Aligned on interleaves
Interleave, duration             : 32 ms (0.80 video frame)
Interleave, preload duration     : 320 ms		
Cover/We Need to Talk about Kevin.jpg 7.982 MB
Cover/www.Film-Test.nl.JPG 29.467 KB
We Need to Talk about Kevin.avi 1.673 GB
Gathering some info...

Register and log in Isohunt and see no captcha anymore!

4000 symbols left
Hash EB50A419365083EAA30B686E9577DCABB6D60065

Related torrents for "We Need to Talk about Kevin 2011 DVDrip English Klam"

Torrent search:

dvdrip english 2011