imdb
rating

4.1
The Apparition

The Apparition (2012)

Horror, Thriller

Full description

The Apparition 2012 BRRip English [Accipiter]

Size 728.128 MB   7 seeders     Added 2013-01-24 03:40:55

Stream torrent
Starting‥ You need BitLord! Get it from 1BitLord.com
To download or stream you need BitLord. Visit them at BitLord.com

Release info:

General
Format                                   : Matroska
Format version                           : Version 2
File size                                : 694 MiB
Duration                                 : 1h 22mn
Overall bit rate mode                    : Variable
Overall bit rate                         : 1 178 Kbps

Video
ID                                       : 1
Format                                   : MPEG-4 Visual
Format profile                           : Advanced Simple@L5
Format settings, BVOP                    : Yes
Format settings, QPel                    : No
Format settings, GMC                     : No warppoints
Format settings, Matrix                  : Default (H.263)
Codec ID                                 : V_MS/VFW/FOURCC / XVID
Codec ID/Hint                            : XviD
Duration                                 : 1h 22mn
Bit rate                                 : 1 022 Kbps
Width                                    : 640 pixels
Height                                   : 272 pixels
Display aspect ratio                     : 2.35:1
Frame rate mode                          : Constant
Frame rate                               : 23.976 fps
Color space                              : YUV
Chroma subsampling                       : 4:2:0
Bit depth                                : 8 bits
Scan type                                : Progressive
Compression mode                         : Lossy
Bits/(Pixel*Frame)                       : 0.245
Stream size                              : 602 MiB (87%)
Language                                 : English
Default                                  : Yes
Forced                                   : No

Audio
ID                                       : 2
Format                                   : MPEG Audio
Format version                           : Version 1
Format profile                           : Layer 3
Mode                                     : Joint stereo
Mode extension                           : MS Stereo
Muxing mode                              : Header stripping
Codec ID                                 : A_MPEG/L3
Codec ID/Hint                            : MP3
Duration                                 : 1h 22mn
Bit rate mode                            : Variable
Bit rate                                 : 133 Kbps
Minimum bit rate                         : 32.0 Kbps
Channel(s)                               : 2 channels
Sampling rate                            : 48.0 KHz
Compression mode                         : Lossy
Stream size                              : 78.2 MiB (11%)
Language                                 : English
Default                                  : Yes
Forced                                   : No


Source:
credit to original movie ripper sparks (Thanks)

IMDB Info:

A couple is haunted by a supernatural presence that is unleashed during a college experiment.

Director: Todd Lincoln
Writer: Todd Lincoln
Stars: Ashley Greene, Sebastian Stan and Tom Felton

Genres: Horror | Thriller
 
http://www.imdb.com/title/tt1433822/

Screen Shot:
 
image 
image 
image 
image		
The Apparition 2012 BRRip English [Accipiter].mkv 728.128 MB
Torrent Downloaded From Digtorrent.org.txt 346 B
Torrent downloaded from souravfile torrents on BTScene.eu.txt 69 B
Gathering some info...

Register and log in Isohunt and see no captcha anymore!

4000 symbols left
Hash 2ABDEAC945423B149A07CE0D67FD719CFDA5BD02

Related torrents for "The Apparition 2012 BRRip English [Accipiter]"

Torrent search:

english 2012 bd