imdb
rating

4.5
Trancers 6: Life After Deth

Trancers 6: Life After Deth (2002)

Science Fiction, Thriller

Full description
quality   dvdrip

Trancers 6 (2002) DVDRip

Size 732.4 MB   0 seeders     Added 2013-01-24 06:54:01

Stream torrent
Starting‥ You need BitLord! Get it from BitLord.com
To download or stream you need BitLord. Visit them at BitLord.com
Trancer hunter Jack Deth travels through time and awakens in the body of his daughter. And now he must save himself (her body) and the world from a new a deadly breed of Trancers. 

Director: Jay Woelfel
Writers: C. Courtney Joyner, Danny Bilson 
Stars: Zette Sullivan, Jennifer Capo and Robert Donavan

Plot:
Trancer hunter Jack Deth travels through time and awakens in the body of his daughter. And now he must save himself (her body) and the world from a new a deadly breed of Trancers.

MediaInfo
General
Complete name                            : D:Trancers 6 [2002]DVDRip XviD-EPiSODETrancers_6.avi
Format                                   : AVI
Format/Info                              : Audio Video Interleave
File size                                : 698 MiB
Duration                                 : 1h 20mn
Overall bit rate mode                    : Variable
Overall bit rate                         : 1 220 Kbps
Writing application                      : Nandub v1.0rc2
Writing library                          : Nandub build 1852/release

Video
ID                                       : 0
Format                                   : MPEG-4 Visual
Format profile                           : Advanced Simple@L5
Format settings, BVOP                    : 2
Format settings, QPel                    : No
Format settings, GMC                     : No warppoints
Format settings, Matrix                  : Default (H.263)
Muxing mode                              : Packed bitstream
Codec ID                                 : XVID
Codec ID/Hint                            : XviD
Duration                                 : 1h 20mn
Bit rate                                 : 1 076 Kbps
Width                                    : 576 pixels
Height                                   : 432 pixels
Display aspect ratio                     : 4:3
Frame rate                               : 23.976 fps
Color space                              : YUV
Chroma subsampling                       : 4:2:0
Bit depth                                : 8 bits
Scan type                                : Progressive
Compression mode                         : Lossy
Bits/(Pixel*Frame)                       : 0.180
Stream size                              : 616 MiB (88%)
Writing library                          : XviD 1.2.1 (UTC 2008-12-04)

Audio
ID                                       : 1
Format                                   : MPEG Audio
Format version                           : Version 1
Format profile                           : Layer 3
Mode                                     : Joint stereo
Mode extension                           : MS Stereo
Codec ID                                 : 55
Codec ID/Hint                            : MP3
Duration                                 : 1h 20mn
Bit rate mode                            : Variable
Bit rate                                 : 131 Kbps
Nominal bit rate                         : 138 Kbps
Channel(s)                               : 2 channels
Sampling rate                            : 48.0 KHz
Compression mode                         : Lossy
Stream size                              : 74.9 MiB (11%)
Alignment                                : Aligned on interleaves
Interleave, duration                     : 24 ms (0.58 video frame)
Interleave, preload duration             : 135 ms
Writing library                          : LAME3.98r
Encoding settings                        : -m j -V 4 -q 3 -lowpass 17 --abr 138

Screenshots: 
image 
image 
image 
image 
image 
image 
image 
image 
image
		
Trancers_6.avi 732.4 MB
Gathering some info...

Register and log in Isohunt and see no captcha anymore!

4000 symbols left
Hash D42CDE32581028EBCB96F81A6B4BC788DDADA1E2

Related torrents for "Trancers 6 (2002) DVDRip"

Torrent search:

dvdrip 2002