Attack of the Show 2013 01 23 FINAL x264 OzQuant

Size 313.745 MB   6 seeders     Added 2013-01-24 15:21:19

Stream torrent
Starting‥ You need BitLord! Get it from BitLord.com
To download or stream you need BitLord. Visit them at BitLord.com
[size=200]Episode Info[/size]
The time has come! Tune in tonight 7/6c for the series finale of Attack of the Show, brought to you by Matt Mira, Sara Underwood and Candace Bailey. We take the full hour to look back at our classic moments, messages from our viewers and one last, epic stunt.

[size=200]File Info[/size]
Format : MPEG-4
Format profile : Base Media / Version 2
Codec ID : mp42
File size : 299 MiB
Duration : 42mn 15s
Overall bit rate mode : Variable
Overall bit rate : 990 Kbps

[size=200]Video[/size]
ID : 1
Format : AVC
Format/Info : Advanced Video Codec
Format profile : Main@L3.0
Format settings, CABAC : Yes
Format settings, ReFrames : 4 frames
Codec ID : avc1
Codec ID/Info : Advanced Video Coding
Duration : 42mn 15s
Bit rate mode : Variable
Bit rate : 922 Kbps
Width : 528 pixels
Height : 416 pixels
Display aspect ratio : 16:9
Frame rate mode : Variable
Frame rate : 25.000 fps
Minimum frame rate : 8.333 fps
Maximum frame rate : 25.000 fps
Color space : YUV
Chroma subsampling : 4:2:0
Bit depth : 8 bits
Scan type : Progressive
Bits/(Pixel*Frame) : 0.168
Stream size : 279 MiB (93%)
Writing library : x264 core 112

[size=200]Audio[/size]
ID : 2
Format : AAC
Format/Info : Advanced Audio Codec
Format profile : LC
Codec ID : 40
Duration : 42mn 15s
Bit rate mode : Variable
Bit rate : 64.0 Kbps
Maximum bit rate : 80.7 Kbps
Channel(s) : 2 channels
Channel positions : Front: L R
Sampling rate : 32.0 KHz
Compression mode : Lossy
Stream size : 19.3 MiB (6%)
Attack.of.the.Show.2013.01.23.FINAL.x264.OzQuant.mp4 313.745 MB
Gathering some info...

Register and log in Isohunt and see no captcha anymore!

4000 symbols left
Hash F33447F21CF7E790ECA39E78E70C884E609E7E59

Related torrents for "Attack of the Show 2013 01 23 FINAL x264 OzQuant"

Torrent search:

x264 2013