imdb
rating

6.5
Red Rock

Red Rock (2015)

Soap, Drama, Crime

Full description

Rob Thomas Something To Be Tour Live At Red Rocks Mkv 720p Dts mkv

Size 2.937 GB   2 seeders     Added 2013-01-24 16:36:42

Stream torrent
Starting‥ You need BitLord! Get it from 1BitLord.com
To download or stream you need BitLord. Visit them at BitLord.com
Rob Thomas Something To Be Tour Live At Red Rocks Mkv 720p Dts

1.Something to Be
2.Fallin' to Pieces
3.If You're Gone
4.When the Heartache Ends
5.Ever the Same
6.Not Just a Woman
7.3 AM
8.You Won't Be Mine
9.The Difference
10.Bent
11.Problem Girl
12.Let's Dance
13.Lonely No More
14.I Am an Illusion
15.Now Comes the Night
16.Smooth
17.You Know Me
18.This Is How a Heart Breaks 

General 
Unique ID : 237870248783340966383973087033539210805 (0xB2F424BC7C69110BA47CAF8B4400AE35) 
Rob Thomas Something To Be Tour Live At Red Rocks Mkv 720p Dts
Format : Matroska 
Format version : Version 2 
File size : 2.74 GiB 
Duration : 1h 26mn 
Overall bit rate mode : Variable 
Overall bit rate : 4 522 Kbps 
Movie name : video 
Encoded date : UTC 2013-01-23 01:06:06 
Writing application : mkvmerge v5.7.0 ('The Whirlwind') built on Jul 8 2012 20:08:51 
Writing library : libebml v1.2.3 + libmatroska v1.3.0 

Video 
ID : 1 
Format : AVC 
Format/Info : Advanced Video Codec 
Format profile : High@L4.0 
Format settings, CABAC : Yes 
Format settings, ReFrames : 3 frames 
Codec ID : V_MPEG4/ISO/AVC 
Duration : 1h 26mn 
Bit rate mode : Variable 
Bit rate : 2 923 Kbps 
Maximum bit rate : 25.0 Mbps 
Width : 1 280 pixels 
Height : 720 pixels 
Display aspect ratio : 16:9 
Frame rate mode : Constant 
Frame rate : 29.970 fps 
Color space : YUV 
Chroma subsampling : 4:2:0 
Bit depth : 8 bits 
Scan type : Progressive 
Bits/(Pixel*Frame) : 0.106 
Stream size : 1.77 GiB (65%) 
Writing library : x264 core 125 r2208 d9d2288 
Encoding settings : cabac=1 / ref=3 / deblock=1:0:0 / analyse=0x3:0x113 / me=hex / subme=7 / psy=1 / psy_rd=1.00:0.00 / mixed_ref=1 / me_range=16 / chroma_me=1 / trellis=1 / 8x8dct=1 / cqm=0 / deadzone=21,11 / fast_pskip=1 / chroma_qp_offset=-2 / threads=12 / lookahead_threads=2 / sliced_threads=0 / nr=0 / decimate=1 / interlaced=0 / bluray_compat=0 / constrained_intra=0 / bframes=3 / b_pyramid=0 / b_adapt=1 / b_bias=0 / direct=1 / weightb=1 / open_gop=0 / weightp=2 / keyint=300 / keyint_min=30 / scenecut=40 / intra_refresh=0 / rc_lookahead=40 / rc=crf / mbtree=1 / crf=24.0 / qcomp=0.60 / qpmin=0 / qpmax=69 / qpstep=4 / vbv_maxrate=25000 / vbv_bufsize=25000 / crf_max=0.0 / nal_hrd=vbr / ip_ratio=1.40 / aq=1:1.00 
Default : Yes 
Forced : No 

Audio 
ID : 2 
Format : DTS 
Format/Info : Digital Theater Systems 
Mode : 16 
Format settings, Endianness : Big 
Codec ID : A_DTS 
Duration : 1h 26mn 
Bit rate mode : Constant 
Bit rate : 1 509 Kbps 
Channel(s) : 6 channels 
Channel positions : Front: L C R, Side: L R, LFE 
Sampling rate : 48.0 KHz 
Bit depth : 24 bits 
Compression mode : Lossy 
Stream size : 935 MiB (33%) 
Language : English 
Default : Yes 
Forced : No 		
Rob Thomas Something To Be Tour Live At Red Rocks Mkv 720p Dts.mkv 2.937 GB
Gathering some info...

Register and log in Isohunt and see no captcha anymore!

4000 symbols left
Hash 2C6DFCE24D65282280E4F27425A3FFA526413423

Related torrents for "Rob Thomas Something To Be Tour Live At Red Rocks Mkv 720p Dts mkv"

Torrent search:

hd