Marsupilami

Marsupilami (1993)

Children Cartoons

Full description

Sur.La.Piste.du.Marsupilami.2012.FRENCH.BDRiP.XViD-RaMoN

Size 736.236 MB   0 seeders     Added 2013-01-24 19:53:55

Stream torrent
Starting‥ You need BitLord! Get it from BitLord.com
To download or stream you need BitLord. Visit them at BitLord.com
                                            
                                               ÛßßßßßßßßßßßßßßßßÛ                  ÜÜÜÜÜÜÜÜÜÜÜ                  
                 ÛÛÛÛÛÛÛÛÛÛÛÛÛÛÛÛÛÛÛÛÛÛÛÛÛÛÛÛÛÛÝ  RELEASE INFO  ÞÛÛÛÛÛÛÛÛÛÛÛÛÛÛÛÛÛÛÛ          Û                 
                 ÛÛßßßßßÿÿÿ                    ÛÜÜÜÜÜÜÜÜÜÜÜÜÜÜÜÜÛ                  ßßßßßßßßßßÛ²±                
                 ÛÝ                                                                          Û²±                
                 ÛÝ                           ÿÿÿÿÿÿÿÿÿÿÿÿÿÿÿÿÿÿÿÿ                           Û²±                
                 ÛÝ                                                                          Û²±                
                 ÛÝ        Sur.La.Piste.du.Marsupilami.2012.FRENCH.BDRiP.XViD-SEiGHT         Û²±                
                 Û                                                                           Û²±                
                 Û  RELEASE DATE: 17/08/12                                                   Û²±                
                 Û  SOURCE: BR Zone B                                                        Û²±                
                 Û  VIDEO: 608x256 @ 783Kbps                AUDIO: FRENCH MP3                Û²±                
                 Û  NB CD: 1x 49x15mb                                                        Û²±                
                 Û  GENRE: Comedie                                                           Û²±                
                 Û  RUNTIME: 01h45min                                                        Û²±                
                 Û  RATING: 5.9/10                                                           Û²±                
                 Û  SUBS:                                                                    Û²±                
                 Û                                                                           Û²±                
                 Û imdb:     http://www.imdb.com/title/tt1723642/                            Û²±                
                 Û allocine: http://www.allocine.fr/film/fichefilm_gen_cfilm=174738.html     Û²±                
                 Û                                                                           Û²±                
                 Û                                                                          ÞÛ²±                                
                 Û                                                                         ÿÞÛ²±                
                 Û                                                                        ÿÿÞÛ²±                
                 Û                                                                        ÿÿÞÛ²±                
                 Û                                                                     ÜÜÜÜÜÛÛ²±                
                 ÛÛÛÛÛÛÛÛÛÛÛÛÛÛÛÛÛÛÛÛÛÛÛÛÛÛÛÛÛÛÛÛÛÛÛÛÛÛÛÛÛÛÛÛÛÛÛÛÛÛÛÛÛÛÛÛÛÛÛÛÛÛÛÛÛÛÛÛÛÛÛÛÛÛÛÛÛ²±                
                   ²²²²²²²²²²²²²²²²²²²²²²²²²²²²²²²²²²²²²²²²²²²²²²²²²²²²²²²²²²²²²²²²²²²²²²²²²²²²±                
                                               ÛßßßßßßßßßßßßßßßßÛ                  ÜÜÜÜÜÜÜÜÜÜÜ                  
                 ÛÛÛÛÛÛÛÛÛÛÛÛÛÛÛÛÛÛÛÛÛÛÛÛÛÛÛÛÛÛÝ  GROUP NOTES   ÞÛÛÛÛÛÛÛÛÛÛÛÛÛÛÛÛÛÛÛ          Û                 
                 ÛÛßßßßßÿÿÿ                    ÛÜÜÜÜÜÜÜÜÜÜÜÜÜÜÜÜÛ                  ßßßßßßßßßßÛ²±                
                 ÛÝ                                                                          Û²±                
                 ÛÝ  Contact/affils:                                  Greets :               Û²±                
                 ÛÝ   need  affils                                       Us                  Û²±                
                 Û     contact us                                                           ÞÛ²±                
                 Û                                                                          ÞÛ²±                
                 Û                                                                         ÿÞÛ²±                
                 Û                                                                        ÿÿÞÛ²±                
                 Û                                                                     ÜÜÜÜÜÛÛ²±                
                 ÛÛÛÛÛÛÛÛÛÛÛÛÛÛÛÛÛÛÛÛÛÛÛÛÛÛÛÛÛÛÛÛÛÛÛÛÛÛÛÛÛÛÛÛÛÛÛÛÛÛÛÛÛÛÛÛÛÛÛÛÛÛÛÛÛÛÛÛÛÛÛÛÛÛÛÛÛ²±                
                   ²²²²²²²²²²²²²²²²²²²²²²²²²²²²²²²²²²²²²²²²²²²²²²²²²²²²²²²²²²²²²²²²²²²²²²²²²²²²±                






General

Complete name : 			s8-marsu-xvid.avi
Format : 				AVI
Format/Info : 				Audio Video Interleave
File size : 				697 MiB
Duration : 				1h 44mn
Overall bit rate : 			933 Kbps
Writing application : 			Nandub v1.0rc2
Writing library : 			Nandub build 1852/release

Video

ID : 					0
Format : 				MPEG-4 Visual
Format profile : 			Advanced Simple@L5
Format settings, BVOP : 		1
Format settings, QPel : 		No
Format settings, GMC : 			No warppoints
Format settings, Matrix : 		Default (H.263)
Muxing mode : 				Packed bitstream
Codec ID : 				XVID
Codec ID/Hint : 			XviD
Duration : 				1h 44mn
Bit rate : 				789 Kbps
Width : 				608 pixels
Height : 				256 pixels
Display aspect ratio : 			2.35:1
Frame rate : 				24.000 fps
Color space : 				YUV
Chroma subsampling : 			4:2:0
Bit depth : 				8 bits
Scan type : 				Progressive
Compression mode : 			Lossy
Bits/(Pixel*Frame) : 			0.211
Stream size : 				590 MiB (85%)
Writing library : 			XviD 64

Audio

ID : 					1
Format : 				MPEG Audio
Format version : 			Version 1
Format profile : 			Layer 3
Mode : 					Joint stereo
Mode extension : 			MS Stereo
Codec ID : 				55
Codec ID/Hint : 			MP3
Duration : 				1h 44mn
Bit rate mode : 			Variable
Bit rate : 				128 Kbps
Channel(s) : 				2 channels
Sampling rate : 			48.0 KHz
Compression mode : 			Lossy
Stream size : 				98.1 MiB (14%)
Alignment : 				Aligned on interleaves
Interleave, duration : 			24 ms (0.58 video frame)
Interleave, preload duration : 		134 ms
Writing library : 			LAME3.96r
Encoding settings : 			-m j -V 4 -q 3 -lowpass 17.5 --abr 128

		
Nouveaux films/Nouveaux films.rar 210.605 KB
Sample/s8-marsu-xvid.s.avi 4.723 MB
s8-marsu-xvid.avi 731.29 MB
Gathering some info...

Register and log in Isohunt and see no captcha anymore!

4000 symbols left
Hash 4532DBD0716410565C208E3942289229E1952230

Related torrents for "Sur.La.Piste.du.Marsupilami.2012.FRENCH.BDRiP.XViD-RaMoN"

Torrent search:

french 2012 bd