JJ Cale Featuring Leon Russell In Session at the Paradise Studio

Size 1.465 GB   3 seeders     Added 2013-01-24 19:54:44

Stream torrent
Starting‥ You need BitLord! Get it from 1BitLord.com
To download or stream you need BitLord. Visit them at BitLord.com
JJ Cale Featuring Leon Russell In Session at the Paradise Studios, L.A. 1979 Avi 556p Ac3 5.1

1.T-Bone Shuffle
2.Nowhere To Run
3.Cocaine
4.Ten Easy Lessons
5.Sensitive Kind
6.Hands Off Her
7.Lou-Easy-Ann
8.Going Down
9.Corine Corina
10.Roll On
11.No Sweat
12.Crazy Mama
13.Fate Of A Fool
14.BoilinΓÇÖ Pot
15.After Midnight
16.T-Bone Shuffle
17.T-Bone Backwards
18.Same Ole Blues
DonΓÇÖt Cry Sister
Set Your Soul Free (Tell Me Who You Are)
24 Hours A Day

General 
JJ Cale Featuring Leon Russell In Session at the Paradise Studios, L.A. 1979 Avi 553p Ac3 5.1
Format : AVI 
Format/Info : Audio Video Interleave 
Format profile : OpenDML 
File size : 1.36 GiB 
Duration : 1h 19mn 
Overall bit rate : 2 458 Kbps 
Movie name : JJ CALE FEATURING LEON RUSSELL.Title4.DVDRip 
Writing application : Lavf53.21.0 
Original source form/Name : JJ CALE FEATURING LEON RUSSELL 

Video 
ID : 0 
Format : MPEG-4 Visual 
Format profile : Advanced Simple@L5 
Format settings, BVOP : 2 
Format settings, QPel : No 
Format settings, GMC : No warppoints 
Format settings, Matrix : Default (H.263) 
Muxing mode : Packed bitstream 
Codec ID : XVID 
Codec ID/Hint : XviD 
Duration : 1h 19mn 
Bit rate : 1 998 Kbps 
Width : 720 pixels 
Height : 556 pixels 
Display aspect ratio : 1.295 
Frame rate : 25.000 fps 
Color space : YUV 
Chroma subsampling : 4:2:0 
Bit depth : 8 bits 
Scan type : Progressive 
Compression mode : Lossy 
Bits/(Pixel*Frame) : 0.200 
Stream size : 1.11 GiB (81%) 
Writing library : XviD 1.2.1 (UTC 2008-12-04) 

Audio 
ID : 1 
Format : AC-3 
Format/Info : Audio Coding 3 
Mode extension : CM (complete main) 
Format settings, Endianness : Big 
Codec ID : 2000 
Duration : 1h 19mn 
Bit rate mode : Constant 
Bit rate : 448 Kbps 
Channel(s) : 6 channels 
Channel positions : Front: L C R, Side: L R, LFE 
Sampling rate : 48.0 KHz 
Bit depth : 16 bits 
Compression mode : Lossy 
Stream size : 254 MiB (18%) 
Alignment : Aligned on interleaves 
Interleave, duration : 32 ms (0.80 video frame)		
JJ Cale Featuring Leon Russell In Session at the Paradise Studios, L.A. 1979 Avi 553p Ac3 5.1.avi 1.465 GB
Gathering some info...

Register and log in Isohunt and see no captcha anymore!

4000 symbols left
Hash E66FBBCEB62401FF52849CAF772146FF1844825A