The Inbetweeners

The Inbetweeners (2008)

Comedy

Full description

The Inbetweeners S01 MP4 AAC DVDrip [Pioneer]

Size 1.427 GB   1 seeders     Added 2013-01-24 20:30:40

Stream torrent
Starting‥ You need BitLord! Get it from BitLord.com
To download or stream you need BitLord. Visit them at BitLord.com
[IMG]image[/IMG]

[i][b]All six episodes from the first series of the comedy drama following the lives and trials of four new sixth-formers. With his parents recently divorced, private school boy Will McKenzie (Simon Bird) has to move into the sixth form at the local comprehensive. After an initial rough patch, not helped by dressing like the archetypal geek and carrying a briefecase, he makes friends with Simon (Joe Thomas), Neil (Blake Harrison) and Jay (James Buckley), who, although they're slightly more streetwise, are just as uncool. Desperately trying to raise their kudos, they soon embark on a series of embarrassing atttempts to try and woo the opposite sex, with varying degrees of success.[/b][/i]

http://uk.imdb.com/title/tt1220617/

http://www.youtube.com/watch?v=Xqr8yPipfJ8


[IMG]image[/IMG]
[IMG]image[/IMG]
[IMG]image[/IMG]
[IMG]image[/IMG]
[IMG]image[/IMG]

[i]
[b]General
Complete name: E:The Inbetweeners S01 MP4 AAC DVDrip [Pioneer]
Format: MPEG-4
Format profile: Base Media / Version 2
Codec ID: mp42
File size: 215 MiB
Duration: 21mn 54s
Overall bit rate mode: Variable
Overall bit rate: 1 373 Kbps
Encoded date: UTC 2013-01-23 10:33:43
Tagged date: UTC 2013-01-23 10:41:38
Writing application: HandBrake 0.9.8 2012071700

Video
ID: 1
Format: AVC
Format/Info: Advanced Video Codec
Format profile: High@L3.0
Format settings, CABAC: Yes
Format settings, ReFrames: 5 frames
Codec ID: avc1
Codec ID/Info: Advanced Video Coding
Duration: 21mn 54s
Bit rate mode: Variable
Bit rate: 1 200 Kbps
Width: 720 pixels
Height: 576 pixels
Display aspect ratio: 16:9
Frame rate mode: Constant
Frame rate: 25.000 fps
Standard: PAL
Color space: YUV
Chroma subsampling: 4:2:0
Bit depth: 8 bits
Scan type: Progressive
Bits/(Pixel*Frame): 0.116
Stream size: 188 MiB (87%)
Writing library: x264 core 120

Encoded date: UTC 2013-01-23 10:33:43
Tagged date: UTC 2013-01-23 10:41:38
Color primaries: BT.601 NTSC
Transfer characteristics: BT.709
Matrix coefficients: BT.601

Audio
ID: 2
Format: AAC
Format/Info: Advanced Audio Codec
Format profile: LC
Codec ID: 40
Duration: 21mn 54s
Bit rate mode: Variable
Bit rate: 159 Kbps
Maximum bit rate: 262 Kbps
Channel(s): 2 channels
Channel positions: Front: L R
Sampling rate: 48.0 KHz
Compression mode: Lossy
Delay relative to video: 80ms
Stream size: 25.0 MiB (12%)
Language: English
Encoded date: UTC 2013-01-23 10:33:43
Tagged date: UTC 2013-01-23 10:41:38[/b][/i]
Torrent downloaded from Silvertorrent.org.txt 86 B
Torrent downloaded from AhaShare.com.txt 58 B
Torrent downloaded from h33t.com.txt 32 B
Gathering some info...

Register and log in Isohunt and see no captcha anymore!

4000 symbols left
Hash C5B13F74C74488495F3C7757F2FD060151E5316F

Related torrents for "The Inbetweeners S01 MP4 AAC DVDrip [Pioneer]"

Torrent search:

dvdrip season 01