Berlin

Berlin (2009)

History, Lifestyle

Full description

Lou Reed's Berlin Mkv 720p Dts

Size 1.947 GB   26 seeders     Added 2013-01-25 13:56:06

Stream torrent
Starting‥ You need BitLord! Get it from BitLord.com
To download or stream you need BitLord. Visit them at BitLord.com
Lou Reed's Berlin Mkv 720p Dts

Thirty-three years after his ambitious concept album Berlin was pronounced dead on arrival, Lou Reed re teams with producers Bob Ezrin and Hal Willner to stage live performances of the now-classic release at concert venues all across the globe. The album, which was savaged by critics upon release, was scored with orchestral arrangements and follows several characters as they experience jealousy, rage, and loss. While many turned their backs on the release back in 1973, the tide eventually turned and Berlin was even named by Rolling Stone as one of the top 500 albums ever released. Filmed during a five-night stint at St. Ann's Warehouse in Brooklyn, N.Y., this belated, live rendition of Berlin features an impressionistic backdrop filmed by director Julian Schnabel's daughter Lola and haunting backup vocals courtesy of the Brooklyn Youth Chorus.

General
Unique ID : 247357168471011618372553608052483238948 (0xBA1741FD53C1DABFA5EB19B29F9F2C24)
Lou Reeds Berlin Mkv 720p Dts
Format : Matroska
Format version : Version 2
File size : 1.81 GiB
Duration : 1h 20mn
Overall bit rate mode : Variable
Overall bit rate : 3 209 Kbps
Movie name : video
Encoded date : UTC 2013-01-24 14:36:45
Writing application : mkvmerge v5.7.0 ('The Whirlwind') built on Jul 8 2012 20:08:51
Writing library : libebml v1.2.3 + libmatroska v1.3.0

Video
ID : 1
Format : AVC
Format/Info : Advanced Video Codec
Format profile : High@L4.0
Format settings, CABAC : Yes
Format settings, ReFrames : 3 frames
Codec ID : V_MPEG4/ISO/AVC
Duration : 1h 20mn
Bit rate mode : Variable
Bit rate : 1 636 Kbps
Maximum bit rate : 25.0 Mbps
Width : 1 280 pixels
Height : 720 pixels
Display aspect ratio : 16:9
Frame rate mode : Constant
Frame rate : 23.976 fps
Color space : YUV
Chroma subsampling : 4:2:0
Bit depth : 8 bits
Scan type : Progressive
Bits/(Pixel*Frame) : 0.074
Stream size : 947 MiB (51%)
Writing library : x264 core 125 r2208 d9d2288
Encoding settings : cabac=1 / ref=3 / deblock=1:0:0 / analyse=0x3:0x113 / me=hex / subme=7 / psy=1 / psy_rd=1.00:0.00 / mixed_ref=1 / me_range=16 / chroma_me=1 / trellis=1 / 8x8dct=1 / cqm=0 / deadzone=21,11 / fast_pskip=1 / chroma_qp_offset=-2 / threads=12 / lookahead_threads=2 / sliced_threads=0 / nr=0 / decimate=1 / interlaced=0 / bluray_compat=0 / constrained_intra=0 / bframes=3 / b_pyramid=0 / b_adapt=1 / b_bias=0 / direct=1 / weightb=1 / open_gop=0 / weightp=2 / keyint=240 / keyint_min=24 / scenecut=40 / intra_refresh=0 / rc_lookahead=40 / rc=crf / mbtree=1 / crf=24.0 / qcomp=0.60 / qpmin=0 / qpmax=69 / qpstep=4 / vbv_maxrate=25000 / vbv_bufsize=25000 / crf_max=0.0 / nal_hrd=vbr / ip_ratio=1.40 / aq=1:1.00
Default : Yes
Forced : No

Audio
ID : 2
Format : DTS
Format/Info : Digital Theater Systems
Mode : 16
Format settings, Endianness : Big
Codec ID : A_DTS
Duration : 1h 20mn
Bit rate mode : Constant
Bit rate : 1 509 Kbps
Channel(s) : 6 channels
Channel positions : Front: L C R, Side: L R, LFE
Sampling rate : 48.0 KHz
Bit depth : 24 bits
Compression mode : Lossy
Stream size : 873 MiB (47%)
Language : English
Default : Yes
Forced : No		
Lou Reeds Berlin Mkv 720p Dts.mkv 1.947 GB
Gathering some info...

Register and log in Isohunt and see no captcha anymore!

4000 symbols left
Hash F9A24E5E582CDFC8E4C68481E69526BD2C251322

Related torrents for "Lou Reed's Berlin Mkv 720p Dts"

Torrent search:

hd