imdb
rating

7.0
Ted

Ted (2012)

Comedy, Fantasy

Full description
quality   dvdrip bd dvd x264 cam hd

Ted (2012) BRRip 720p Dual Audio [Hindi-Eng]

Size 791.175 MB   1 seeders     Added 2013-01-25 18:36:07

Stream torrent
Starting‥ You need BitLord! Get it from BitLord.com
To download or stream you need BitLord. Visit them at BitLord.com
mastitorrents.com
  
http://mastitorrents.com/forums/index.php
  
http://thepiratebay.se/user/HDvideos/0/7

Ted (2012) BRRip 720p Dual Audio [Hindi-Eng]

Rip info

Format                                   : Matroska
Format version                           : Version 2
File size                                : 744 MiB
Duration                                 : 1h 46mn
Overall bit rate                         : 981 Kbps
Movie name                               : Ted.[2012].BRRip 720p Dual Audio [Hindi-Eng]

Video

Format                                   : AVC
Format/Info                              : Advanced Video Codec
Format profile                           : High@L3.1
Format settings, CABAC                   : Yes
Format settings, ReFrames                : 4 frames
Muxing mode                              : Header stripping
Codec ID                                 : V_MPEG4/ISO/AVC
Duration                                 : 1h 46mn
Bit rate                                 : 725 Kbps
Width                                    : 1 280 pixels
Height                                   : 688 pixels
Display aspect ratio                     : 1.860
Frame rate                               : 23.976 fps
Color space                              : YUV
Chroma subsampling                       : 4:2:0
Bit depth                                : 8 bits
Scan type                                : Progressive
Bits/(Pixel*Frame)                       : 0.034
Stream size                              : 535 MiB (72%)
Title                                    : K@rtik
Writing library                          : x264 core 129 r2230 1cffe9f

Audio 1

Codec ID                                 : A_AC3
Duration                                 : 1h 46mn
Bit rate mode                            : Constant
Bit rate                                 : 128 Kbps
Channel(s)                               : 2 channels
Channel positions                        : Front: L R
Sampling rate                            : 44.1 KHz
Bit depth                                : 16 bits
Compression mode                         : Lossy
Delay relative to video                  : 1s 350ms
Stream size                              : 97.1 MiB (13%)
Title                                    : K@rtik
Language                                 : Hindi
Default

Audio 2

Codec ID                                 : A_AC3
Duration                                 : 1h 46mn
Bit rate mode                            : Constant
Bit rate                                 : 128 Kbps
Channel(s)                               : 2 channels
Channel positions                        : Front: L R
Sampling rate                            : 48.0 KHz
Bit depth                                : 16 bits
Compression mode                         : Lossy
Stream size                              : 97.1 MiB (13%)
Title                                    : K@rtik
Language                                 : English

Screens: 
image 
image 
image 
image 
image 
image 
image 
image 
image 
image		
Ted (2012) BRRip 720p Dual Audio [Hindi-Eng].mkv 780.315 MB
Ted.[2012].Sample.mkv 10.86 MB
Torrent Tracked by MastiTorrents.com.txt 427 B
Gathering some info...

Register and log in Isohunt and see no captcha anymore!

4000 symbols left
Hash 59028D6B2B8C3064D55A68E130275D13A718C781

Related torrents for "Ted (2012) BRRip 720p Dual Audio [Hindi-Eng]"

Torrent search:

english hd hindi 2012 bd