Midhunam - 2012 - Telugu - CAMRip - MP4 - AAC - RockStar - Team QMR

Size 308.213 MB   19 seeders     Added 2013-01-25 20:41:07

Stream torrent
Starting‚Ä• You need BitLord! Get it from 1BitLord.com
To download or stream you need BitLord. Visit them at BitLord.com
[CENTER]
[img]image[/img]


[size=200][color=purple]Midhunam - 2012 - Telugu - CAMRip - MP4 - AAC - RockStar - Team QMR[/color][/size]
[img]http://t1.gstatic.com/images?q=tbn:ANd9GcSFc9AvzIfrfsfLW4sMaAHUxG7kkdKN8uijND_6s8VlL0HgCM91[/img]


[size=200][color=gray]QMR Media Info[/color][/size]


[quote]

General
Complete name : Midhunam - 2012 - Telugu - CAMRip - MP4 - AAC - RockStar - Team QMR.mp4
Format : MPEG-4
Format profile : Base Media / Version 2
Codec ID : mp42
File size : 294 MiB
Duration : 1h 14mn
Overall bit rate mode : Variable
Overall bit rate : 554 Kbps
Encoded date : UTC 2013-01-24 13:21:50
Tagged date : UTC 2013-01-24 13:32:20
Writing application : HandBrake 0.9.8 2012071700

Video
ID : 1
Format : AVC
Format/Info : Advanced Video Codec
Format profile : Main@L2.1
Format settings, CABAC : Yes
Format settings, ReFrames : 4 frames
Codec ID : avc1
Codec ID/Info : Advanced Video Coding
Duration : 1h 14mn
Bit rate mode : Variable
Bit rate : 390 Kbps
Width : 600 pixels
Height : 320 pixels
Display aspect ratio : 1.85:1
Frame rate mode : Variable
Frame rate : 25.000 fps
Minimum frame rate : 12.500 fps
Maximum frame rate : 25.000 fps
Color space : YUV
Chroma subsampling : 4:2:0
Bit depth : 8 bits
Scan type : Progressive
Bits/(Pixel*Frame) : 0.081
Stream size : 207 MiB (70%)
Writing library : x264 core 120
Encoding settings : cabac=1 / ref=1 / deblock=1:0:0 / analyse=0x1:0x111 / me=hex / subme=2 / psy=1 / psy_rd=1.00:0.00 / mixed_ref=0 / me_range=16 / chroma_me=1 / trellis=0 / 8x8dct=0 / cqm=0 / deadzone=21,11 / fast_pskip=1 / chroma_qp_offset=0 / threads=6 / sliced_threads=0 / nr=0 / decimate=1 / interlaced=0 / bluray_compat=0 / constrained_intra=0 / bframes=3 / b_pyramid=2 / b_adapt=1 / b_bias=0 / direct=1 / weightb=1 / open_gop=0 / weightp=1 / keyint=250 / keyint_min=25 / scenecut=40 / intra_refresh=0 / rc_lookahead=10 / rc=crf / mbtree=1 / crf=20.0 / qcomp=0.60 / qpmin=3 / qpmax=69 / qpstep=4 / ip_ratio=1.40 / aq=1:1.00
Encoded date : UTC 2013-01-24 13:21:50
Tagged date : UTC 2013-01-24 13:32:20
Color primaries : BT.709
Transfer characteristics : BT.709
Matrix coefficients : BT.709

Audio
ID : 2
Format : AAC
Format/Info : Advanced Audio Codec
Format profile : LC
Codec ID : 40
Duration : 1h 14mn
Bit rate mode : Variable
Bit rate : 160 Kbps
Maximum bit rate : 201 Kbps
Channel(s) : 2 channels
Channel positions : Front: L R
Sampling rate : 44.1 KHz
Compression mode : Lossy
Delay relative to video : 80ms
Stream size : 84.8 MiB (29%)
Language : English
Encoded date : UTC 2013-01-24 13:21:50
Tagged date : UTC 2013-01-24 13:32:19


[/quote]


[size=200][color=gray]QMR ScreenS[/color][/size]

[img]image[/img]

[img]image[/img]

[img]image[/img]

[img]image[/img]

[img]image[/img]

[img]image[/img]

[img]image[/img]

[img]image[/img]

[img]image[/img]

[img]image[/img]


[img]image[/img]

[img]image[/img]

[img]image[/img]

[/CENTER]
Find mE RockStar.txt 63 B
Midhunam - 2012 - Telugu - CAMRip - MP4 - AAC - RockStar - Team QMR.mp4 308.212 MB
Team MC.txt 116 B
Gathering some info...

Register and log in Isohunt and see no captcha anymore!

4000 symbols left
Hash B7C5312B8508BFC84847E32DD0AC3FBCC55497D4