imdb
rating

6.2
Broken City

Broken City (2013)

Crime, Drama, Thriller

Full description

Broken City.2013.DVDRip.Xvid.AC3.Legend-Rg

Size 745.15 MB   0 seeders     Added 2013-01-25 20:59:19

Stream torrent
Starting‥ You need BitLord! Get it from BitLord.com
To download or stream you need BitLord. Visit them at BitLord.com
Broken City.2013.DVDRip.Xvid.AC3.Legend-Rg


Video
ID : 0
Format : MPEG-4 Visual
Format profile : Advanced Simple@L5
Format settings, BVOP : Yes
Format settings, QPel : No
Format settings, GMC : No warppoints
Format settings, Matrix : Default (H.263)
Muxing mode : Packed bitstream
Codec ID : XVID
Codec ID/Hint : XviD
Duration : 1h 22mn
Bit rate : 846 Kbps
Width : 640 pixels
Height : 272 pixels
Display aspect ratio : 2.35:1
Frame rate : 23.976 fps
Color space : YUV
Chroma subsampling : 4:2:0
Bit depth : 8 bits
Scan type : Progressive
Compression mode : Lossy
Bits/(Pixel*Frame) : 0.203
Stream size : 499 MiB (65%)
Writing library : XviD 1.2.1 (UTC 2008-12-04)

Audio
ID : 1
Format : AC-3
Format/Info : Audio Coding 3
Mode extension : CM (complete main)
Codec ID : 2000
Duration : 1h 22mn
Bit rate mode : Constant
Bit rate : 448 Kbps
Channel(s) : 6 channels
Channel positions : Front: L C R, Side: L R, LFE
Sampling rate : 48.0 KHz
Bit depth : 16 bits
Compression mode : Lossy
Video delay : 19ms
Stream size : 264 MiB (34%)
Alignment : Split accross interleaves
Interleave, duration : 42 ms (1.00 video frame)
Interleave, preload duration : 500 ms				
Broken City.2013.DVDRip.Xvid.AC3.Legend-Rg.wmv 744.989 MB
info.nfo 5.215 KB
READ this before playing the Video.txt 5.215 KB
Gathering some info...

Register and log in Isohunt and see no captcha anymore!

4000 symbols left
Hash 966F8FF5935FC2BFD6EA80055EED266B966EBC66

Related torrents for "Broken City.2013.DVDRip.Xvid.AC3.Legend-Rg"

Torrent search:

dvdrip 2013