Alceste à bicyclette 2012 FRENCH DVDRiP XViD - ViP3R

Size 735.561 MB   0 seeders     Added 2013-01-25 23:45:17

To download or stream you need BitLord. Visit them at BitLord.com
Alceste à bicyclette 2012 FRENCH DVDRiP XViD - ViP3R



Movie info :
GENRE............: Comedie Dramatique 


STATS:

Video
ID                               : 0
Format                           : MPEG-4 Visual
Format profile                   : Advanced Simple@L5
Format settings, BVOP            : 2
Format settings, QPel            : No
Format settings, GMC             : No warppoints
Format settings, Matrix          : Default (MPEG)
Muxing mode                      : Packed bitstream
Codec ID                         : XVID
Codec ID/Hint                    : XviD
Duration                         : 1h 44mn
Bit rate                         : 986 Kbps
Width                            : 720 pixels
Height                           : 320 pixels
Display aspect ratio             : 2.25:1
Frame rate                       : 29.970 fps
Color space                      : YUV
Chroma subsampling               : 4:2:0
Bit depth                        : 8 bits
Scan type                        : Progressive
Compression mode                 : Lossy
Bits/(Pixel*Frame)               : 0.243
Stream size                      : 647 MiB (92%)
Writing library                  : XviD 64

Audio

Format                           : MPEG Audio
Format version                   : Version 1
Format profile                   : Layer 3
Mode                             : Joint stereo
Mode extension                   : MS Stereo
Codec ID                         : 55
Codec ID/Hint                    : MP3
Duration                         : 1h 44mn
Bit rate mode                    : Constant
Bit rate                         : 128 Kbps
Channel(s)                       : 2 channels
Sampling rate                    : 48.0 KHz
Compression mode                 : Lossy
Stream size                      : 56 MiB (7%)
Alignment                        : Split accross interleaves
Interleave, duration             : 33 ms (1.00 video frame)
Interleave, preload duration     : 500 ms









Alceste à bicyclette 2012 FRENCH DVDRiP XViD - ViP3R/Alceste à bicyclette 2012 FRENCH DVDRiP XViD - ViP3R.nfo 4.08 KB
Alceste à bicyclette 2012 FRENCH DVDRiP XViD - ViP3R/Alceste à bicyclette 2012 FRENCH DVDRiP XViD - ViP3R.rar 735.052 MB
Alceste à bicyclette 2012 FRENCH DVDRiP XViD - ViP3R/Screenshot01 .png 8.436 KB
Gathering some info...

Register and log in Isohunt and see no captcha anymore!

4000 symbols left
Hash c1f1f3e7da16663ef61ca9bff0ee87ee54891516