imdb
rating

8.5
Django Unchained

Django Unchained (2012)

Drama, Western

Full description
quality   screener dvdrip hd bd x264

Django Unchained 2012 DVDRip XviD AC3-REFiLL

Size 736.261 MB   0 seeders     Added 2013-01-26 00:29:42

Stream torrent
Starting‥ You need BitLord! Get it from BitLord.com
To download or stream you need BitLord. Visit them at BitLord.com
Django Unchained 2012.DVDRip.XviD.AC3-REFiLL\r\n\r\n\r\n\r\nMovie info :\r\nGENRE............: Drama | Western  \r\nIMDB RATING......: 8.7/10 from 119,188 users   Metascore: 81/100 \r\n\r\n\r\nSTATS:\r\n\r\nVideo\r\nID                               : 0\r\nFormat                           : MPEG-4 Visual\r\nFormat profile                   : Advanced Simple@L5\r\nFormat settings, BVOP            : 2\r\nFormat settings, QPel            : No\r\nFormat settings, GMC             : No warppoints\r\nFormat settings, Matrix          : Default (MPEG)\r\nMuxing mode                      : Packed bitstream\r\nCodec ID                         : XVID\r\nCodec ID/Hint                    : XviD\r\nDuration                         : 2h 44mn\r\nBit rate                         : 986 Kbps\r\nWidth                            : 720 pixels\r\nHeight                           : 320 pixels\r\nDisplay aspect ratio             : 2.25:1\r\nFrame rate                       : 29.970 fps\r\nColor space                      : YUV\r\nChroma subsampling               : 4:2:0\r\nBit depth                        : 8 bits\r\nScan type                        : Progressive\r\nCompression mode                 : Lossy\r\nBits/(Pixel*Frame)               : 0.243\r\nStream size                      : 647 MiB (92%)\r\nWriting library                  : XviD 64\r\n\r\nAudio\r\n\r\nFormat                           : MPEG Audio\r\nFormat version                   : Version 1\r\nFormat profile                   : Layer 3\r\nMode                             : Joint stereo\r\nMode extension                   : MS Stereo\r\nCodec ID                         : 55\r\nCodec ID/Hint                    : MP3\r\nDuration                         : 2h 44mn\r\nBit rate mode                    : Constant\r\nBit rate                         : 128 Kbps\r\nChannel(s)                       : 2 channels\r\nSampling rate                    : 48.0 KHz\r\nCompression mode                 : Lossy\r\nStream size                      : 56 MiB (7%)\r\nAlignment                        : Split accross interleaves\r\nInterleave, duration             : 33 ms (1.00 video frame)\r\nInterleave, preload duration     : 500 ms\r\n\r\n\r\n\r\n\r\n\r\n\r\n\r\n\r\n\r\n
Django Unchained 2012.DVDRip.XviD.AC3-REFiLL/Django Unchained 2012.DVDRip.XviD.AC3-REFiLL.nfo 2.096 KB
Django Unchained 2012.DVDRip.XviD.AC3-REFiLL/Django Unchained 2012.DVDRip.XviD.AC3-REFiLL.rar 735.052 MB
Django Unchained 2012.DVDRip.XviD.AC3-REFiLL/Screenshot00 .png 549.56 KB
Gathering some info...

Register and log in Isohunt and see no captcha anymore!

4000 symbols left
Hash 23ba15f1ea3a7adbaaa3c08a58756870ce55ae80

Related torrents for "Django Unchained 2012 DVDRip XviD AC3-REFiLL"

Torrent search:

dvdrip 2012