imdb
rating

7.8
Skyfall

Skyfall (2012)

Action, Adventure, Thriller

Full description

Skyfall 2012 DVDrip English Klam

Size 2.154 GB   4 seeders     Added 2013-01-26 00:57:23

Stream torrent
Starting‥ You need BitLord! Get it from BitLord.com
To download or stream you need BitLord. Visit them at BitLord.com
With: Daniel Craig, Judi Dench and Javier Bardem

Bonds loyaliteit aan M wordt op de proef gesteld als ze achtervolgd wordt door haar verleden. Als de MI6 vervolgens onder vuur komt te liggen is Bond genoodzaakt de bedreiging op te sporen en te vernietigen, ongeacht de hoge persoonlijke prijs die dit met zich mee brengt.

Bond's loyalty to M is tested as her past comes back to haunt her, bringing MI6 under attack. 
 
http://www.imdb.com/title/tt1074638	

------------------------ Dutch Friends ------------------------
---------------------------------------------------------------
- Bezoek ook eens mijn vrienden op:  http://www.Film-Test.nl --
----- voor mijn Nederlandse Sync. ondertitels ---- en meer ----
------- http://www.Film-Test.nl ---- Over Films en meer -------
---------------------------------------------------------------

General:

Complete name                    : SkyfallSkyfall.avi
Format                           : AVI
Format/Info                      : Audio Video Interleave
File size                        : 2.00 GiB
Duration                         : 2h 23mn
Overall bit rate                 : 2 002 Kbps

Video:

Format                           : MPEG-4 Visual
Format profile                   : Simple@L3
Format settings, BVOP            : No
Format settings, QPel            : No
Format settings, GMC             : No warppoints
Format settings, Matrix          : Default (H.263)
Codec ID                         : XVID
Codec ID/Hint                    : XviD
Duration                         : 2h 23mn
Bit rate                         : 1 544 Kbps
Width                            : 720 pixels
Height                           : 304 pixels
Display aspect ratio             : 2.35:1
Frame rate                       : 23.976 fps
Color space                      : YUV
Chroma subsampling               : 4:2:0
Bit depth                        : 8 bits
Scan type                        : Progressive
Compression mode                 : Lossy
Bits/(Pixel*Frame)               : 0.294
Stream size                      : 1.54 GiB (77%)
Writing library                  : XviD 1.1.2 (UTC 2006-11-01)

Audio:

Format                           : AC-3
Format/Info                      : Audio Coding 3
Mode extension                   : CM (complete main)
Codec ID                         : 2000
Duration                         : 2h 23mn
Bit rate mode                    : Constant
Bit rate                         : 448 Kbps
Channel(s)                       : 6 channels
Channel positions                : Front: L C R, Side: L R, LFE
Sampling rate                    : 48.0 KHz
Bit depth                        : 16 bits
Compression mode                 : Lossy
Stream size                      : 459 MiB (22%)
Alignment                        : Aligned on interleaves
Interleave, duration             : 32 ms (0.77 video frame)
Interleave, preload duration     : 288 ms		
Cover/Skyfall.jpg 4.202 MB
Cover/www.Film-Test.nl.JPG 29.467 KB
New Dutch Site.txt 117 B
Gathering some info...

Register and log in Isohunt and see no captcha anymore!

4000 symbols left
Hash 24C33FDDC7E2F5423AC1B3F944E8352D70E25088

Related torrents for "Skyfall 2012 DVDrip English Klam"

Torrent search:

dvdrip english 2012