imdb
rating

8.6
Luther

Luther (2010)

Crime, Drama, Mystery

Full description

Luther S01 MP4 x264 AAC DVDrip [Pioneer]

Size 3.857 GB   4 seeders     Added 2013-01-27 00:23:07

Stream torrent
Starting‥ You need BitLord! Get it from 1BitLord.com
To download or stream you need BitLord. Visit them at BitLord.com
[IMG]image[/IMG]

[b]
"Luther" follows the cases of a troubled yet brilliant English police detective, DCI John Luther (Idris Elba). Separated from his wife, whom he loves passionately, he is torn between an unrelenting approach to solving serial killings and his attempts to rekindle his marriage. Luther is a highly charged emotional man who is not above stretching the law to solve a case or save a life. In episode one, Alice Morgan (Ruth Wilson) proves she is equally brilliant by committing the perfect murder of her parents, which challenges Luther as never before. Alice develops a strange fascination for Luther and their continued exchanges and interplay serve as a backdrop for the rest of the season. Luther's edgy police tactics make him a serious concern to his superiors, who feel that he is a threat to their reputations and that of the Police force. From the opening credits to the end of season one, "Luther" is a fast paced mystery presented with many plot twists and insights into the human psyche.

Starring: Warren Brown, Idris Elba, Steven Mackintosh, Saskia Reeves, Paul McGann[/b]
Director: Brian Kirk

http://www.imdb.com/title/tt1474684/

http://www.youtube.com/watch?v=fnIr5bo99bA


[IMG]image[/IMG]
[IMG]image[/IMG]
[IMG]image[/IMG]
[IMG]image[/IMG]
[IMG]image[/IMG]

[b]
General
Complete name : D:\Luther S01 MP4 x264 AAC DVDrip [Pioneer]
Format : MPEG-4
Format profile : Base Media / Version 2
Codec ID : mp42
File size : 613 MiB
Duration : 58mn 17s
Overall bit rate mode : Variable
Overall bit rate : 1 470 Kbps
Encoded date : UTC 2013-01-24 21:34:01
Tagged date : UTC 2013-01-24 22:02:43
Writing application : HandBrake 0.9.8 2012071700

Video
ID : 1
Format : AVC
Format/Info : Advanced Video Codec
Format profile : High@L3.0
Format settings, CABAC : Yes
Format settings, ReFrames : 5 frames
Codec ID : avc1
Codec ID/Info : Advanced Video Coding
Duration : 58mn 17s
Bit rate mode : Variable
Bit rate : 1 300 Kbps
Width : 720 pixels
Height : 576 pixels
Display aspect ratio : 16:9
Frame rate mode : Constant
Frame rate : 25.000 fps
Standard : PAL
Color space : YUV
Chroma subsampling : 4:2:0
Bit depth : 8 bits
Scan type : Progressive
Bits/(Pixel*Frame) : 0.125
Stream size : 542 MiB (88%)
Writing library : x264 core 120
Encoded date : UTC 2013-01-24 21:34:01
Tagged date : UTC 2013-01-24 22:02:43
Color primaries : BT.601 NTSC
Transfer characteristics : BT.709
Matrix coefficients : BT.601

Audio
ID : 2
Format : AAC
Format/Info : Advanced Audio Codec
Format profile : LC
Codec ID : 40
Duration : 58mn 16s
Bit rate mode : Variable
Bit rate : 160 Kbps
Maximum bit rate : 211 Kbps
Channel(s) : 2 channels
Channel positions : Front: L R
Sampling rate : 48.0 KHz
Compression mode : Lossy
Delay relative to video : 80ms
Stream size : 66.6 MiB (11%)
Language : English
Encoded date : UTC 2013-01-24 21:34:01
Tagged date : UTC 2013-01-24 22:02:43[/b]
Luther S01 E01 MP4 x264 AAC DVDrip [Pioneer].mp4 642.689 MB
Luther S01 E02 MP4 x264 AAC DVDrip [Pioneer].mp4 627.007 MB
Luther S01 E03 MP4 x264 AAC DVDrip [Pioneer].mp4 646.506 MB
Gathering some info...

Register and log in Isohunt and see no captcha anymore!

4000 symbols left
Hash F4C3E9D0C7246BD5F8253D0B825B98554D294F7B

Related torrents for "Luther S01 MP4 x264 AAC DVDrip [Pioneer]"

Torrent search:

dvdrip season 01 x264