imdb
rating

8.5
The Green Mile

The Green Mile (1999)

Crime, Drama, Fantasy

Full description
quality   hdtv hd dvdrip dvdr x264 bd fullhd

THE_GREEN_MILE 1999 x264

Size 1.515 GB   6 seeders     Added 2013-01-27 01:35:09

Stream torrent
Starting‥ You need BitLord! Get it from BitLord.com
To download or stream you need BitLord. Visit them at BitLord.com
IMDb: http://www.imdb.com/title/tt0120689/
Language : English


Screens : 
image 
image 
image 
image 
image 
image 
image

Info :

Format                                   : MPEG-4
Format profile                           : Base Media / Version 2
Codec ID                                 : mp42
File size                                : 1.41 GiB
Duration                                 : 3h 8mn
Overall bit rate                         : 1 068 Kbps
Encoded date                             : UTC 2013-01-26 00:43:46
Tagged date                              : UTC 2013-01-26 01:19:55

Video
ID                                       : 1
Format                                   : AVC
Format/Info                              : Advanced Video Codec
Format profile                           : Main@L3.0
Format settings, CABAC                   : Yes
Format settings, ReFrames                : 1 frame
Codec ID                                 : avc1
Codec ID/Info                            : Advanced Video Coding
Duration                                 : 3h 8mn
Bit rate mode                            : Variable
Bit rate                                 : 1 001 Kbps
Width                                    : 704 pixels
Height                                   : 396 pixels
Display aspect ratio                     : 16:9
Frame rate mode                          : Variable
Frame rate                               : 23.976 fps
Minimum frame rate                       : 23.974 fps
Maximum frame rate                       : 90.000 fps
Color space                              : YUV
Chroma subsampling                       : 4:2:0
Bit depth                                : 8 bits
Scan type                                : Progressive
Bits/(Pixel*Frame)                       : 0.150
Stream size                              : 1.32 GiB (94%)
Writing library                          : x264 core
Encoded date                             : UTC 2013-01-26 00:43:46
Tagged date                              : UTC 2013-01-26 01:19:47
Color primaries                          : BT.601 NTSC
Transfer characteristics                 : BT.709
Matrix coefficients                      : BT.601

Audio
ID                                       : 2
Format                                   : MPEG Audio
Format version                           : Version 1
Format profile                           : Layer 3
Mode                                     : Joint stereo
Mode extension                           : MS Stereo
Codec ID                                 : 69
Duration                                 : 3h 8mn
Bit rate mode                            : Constant
Bit rate                                 : 64.0 Kbps
Channel(s)                               : 2 channels
Sampling rate                            : 48.0 KHz
Compression mode                         : Lossy
Stream size                              : 86.3 MiB (6%)
Writing library                          : LAME3.98.4ªªªªªª¿
Encoded date                             : UTC 2013-01-26 00:43:46
Tagged date                              : UTC 2013-01-26 01:19:37
		
piczend.com free image hosting.txt 58 B
THE_GREEN_MILE 1999 x264.mp4 1.51 GB
THE_GREEN_MILE.Title1.idx 84.299 KB
Gathering some info...

Register and log in Isohunt and see no captcha anymore!

4000 symbols left
Hash 6F756262B3ED312A62B5B698859C155F39C59D10

Related torrents for "THE_GREEN_MILE 1999 x264"

Torrent search:

1999 x264