imdb
rating

7.3
Flight

Flight (2012)

Drama

Full description

Flight 2012 BDRip Xvid Ac3-ANALOG-SceneTime

Size 2.218 GB   0 seeders     Added 2013-01-27 09:46:00

Stream torrent
Starting‥ You need BitLord! Get it from BitLord.com
To download or stream you need BitLord. Visit them at BitLord.com
Complete name: Flight.2012.BDRip.Xvid.Ac3-ANALOGF.2012.BDR.ANALOG.avi
Format: AVI
Format/Info: Audio Video Interleave
Format profile: OpenDML
File size: 2.02 GiB
Duration: 2h 18mn
Overall bit rate: 2 083 Kbps
Writing application: VirtualDubMod 1.5.10.1 (build 2366/release)
Writing library: VirtualDubMod build 2366/release

Video
ID: 0
Format: MPEG-4 Visual
Format profile: Advanced Simple@L5
Format settings, BVOP: 2
Format settings, QPel: No
Format settings, GMC: No warppoints
Format settings, Matrix: Default (MPEG)
Muxing mode: Packed bitstream
Codec ID: XVID
Codec ID/Hint: XviD
Duration: 2h 18mn
Bit rate: 1 687 Kbps
Width: 720 pixels
Height: 304 pixels
Display aspect ratio: 2.35:1
Frame rate: 23.976 fps
Color space: YUV
Chroma subsampling: 4:2:0
Bit depth: 8 bits
Scan type: Progressive
Compression mode: Lossy
Bits/(Pixel*Frame): 0.321
Stream size: 1.63 GiB (81%)
Writing library: XviD 1.2.1 (UTC 2008-12-04)

Audio
ID: 1
Format: AC-3
Format/Info: Audio Coding 3
Mode extension: CM (complete main)
Format settings, Endianness: Big
Codec ID: 2000
Duration: 2h 18mn
Bit rate mode: Constant
Bit rate: 384 Kbps
Channel(s): 6 channels
Channel positions: Front: L C R, Side: L R, LFE
Sampling rate: 48.0 KHz
Bit depth: 16 bits
Compression mode: Lossy
Stream size: 381 MiB (18%)
Alignment: Split accross interleaves
Interleave, duration: 42 ms (1.00 video frame)
Interleave, preload duration: 500 ms
Sample: Yes
Subs: English/English(hard.of.hearing)/French/Spanish
Source: BluRay.Disc/BD50		
{www.scenetime.com}Flight.2012.BDRip.Xvid.Ac3-ANALOG/1.png 304.917 KB
{www.scenetime.com}Flight.2012.BDRip.Xvid.Ac3-ANALOG/2.png 255.926 KB
{www.scenetime.com}Flight.2012.BDRip.Xvid.Ac3-ANALOG/3.png 381.365 KB
Gathering some info...

Register and log in Isohunt and see no captcha anymore!

4000 symbols left
Hash 5be3bf9284b3086f48155a83933bd25eb42edf60

Related torrents for "Flight 2012 BDRip Xvid Ac3-ANALOG-SceneTime"

Torrent search:

2012 bd