imdb
rating

7.1
Robot & Frank

Robot & Frank (2012)

Comedy, Crime, Drama

Full description
quality   telesync dvdrip

Robot & Frank 2012 DVDRip AC3 5 1 XviD-DEYA

Size 1.599 GB   4 seeders     Added 2013-01-27 10:36:13

Stream torrent
Starting‥ You need BitLord! Get it from 1BitLord.com
To download or stream you need BitLord. Visit them at BitLord.com
TiTLE: Robot.&.Frank.2012.DVDRip.AC3.5.1.XviD-DEYA
 
http://www.imdb.com/title/tt1990314/

General
Complete name : C:UsersBakerDesktopRobot.&.Frank.2012.DVDRip.AC3.5.1.XviD-DEYA
Format : AVI
Format/Info : Audio Video Interleave
File size : 1.48 GiB
Duration : 1h 25mn
Overall bit rate : 2 484 Kbps
Writing library : VirtualDub-MPEG2 build 24586/release

Video
ID : 0
Format : MPEG-4 Visual
Format profile : Advanced Simple@L5
Format settings, BVOP : 2
Format settings, QPel : No
Format settings, GMC : No warppoints
Format settings, Matrix : Default (H.263)
Muxing mode : Packed bitstream
Codec ID : XVID
Codec ID/Hint : XviD
Duration : 1h 25mn
Bit rate : 2 026 Kbps
Width : 720 pixels
Height : 304 pixels
Display aspect ratio : 2.35:1
Frame rate : 25.000 fps
Color space : YUV
Chroma subsampling : 4:2:0
Bit depth : 8 bits
Scan type : Progressive
Compression mode : Lossy
Bits/(Pixel*Frame) : 0.370
Stream size : 1.21 GiB (82%)
Writing library : XviD 64

Audio
ID : 1
Format : AC-3
Format/Info : Audio Coding 3
Mode extension : CM (complete main)
Format settings, Endianness : Big
Codec ID : 2000
Duration : 1h 25mn
Bit rate mode : Constant
Bit rate : 448 Kbps
Channel(s) : 6 channels
Channel positions : Front: L C R, Side: L R, LFE
Sampling rate : 48.0 KHz
Bit depth : 16 bits
Compression mode : Lossy
Stream size : 273 MiB (18%)
Alignment : Aligned on interleaves
Interleave, duration : 40 ms (1.00 video frame)
Interleave, preload duration : 512 ms

SOURCE: DVD9

NOTES: Tweaked Enjoy! ;)

SCREENiES:
 
image
 
image
 
image
 
image
 
image
 
image

GreeTz: OURSELVES & ET ;)		
Robot.&.Frank.2012.DVDRip.AC3.5.1.XviD-DEYA.avi 1.59 GB
sample.avi 9.517 MB
Torrent Downloaded From ExtraTorrent.com.txt 353 B
Gathering some info...

Register and log in Isohunt and see no captcha anymore!

4000 symbols left
Hash 66A24052CF9AB55E8E7A42C61BB51854E541231F

Related torrents for "Robot & Frank 2012 DVDRip AC3 5 1 XviD-DEYA"

Torrent search:

dvdrip 2012