imdb
rating

8.8
Archer

Archer (2009)

Action & Adventure, Animation, Drama, Comedy

Full description

Archer - 402 - 720p XBOX360/PS3 READY

Size 849.668 MB   0 seeders     Added 2013-01-27 11:01:01

Stream torrent
Starting‥ You need BitLord! Get it from BitLord.com
To download or stream you need BitLord. Visit them at BitLord.com
Sorry its a day late... ive had a killer stomach flu :/

Video
ID                                       : 0
Format                                   : MPEG-4 Visual
Format profile                           : Simple@L3
Format settings, BVOP                    : No
Format settings, QPel                    : No
Format settings, GMC                     : No warppoints
Format settings, Matrix                  : Default (H.263)
Codec ID                                 : XVID
Codec ID/Hint                            : XviD
Duration                                 : 21mn 27s
Bit rate                                 : 4 953 Kbps
Width                                    : 1 280 pixels
Height                                   : 720 pixels
Display aspect ratio                     : 16:9
Frame rate                               : 23.976 fps
Color space                              : YUV
Chroma subsampling                       : 4:2:0
Bit depth                                : 8 bits
Scan type                                : Progressive
Compression mode                         : Lossy
Bits/(Pixel*Frame)                       : 0.224
Stream size                              : 760 MiB (94%)
Writing library                          : XviD 63

Audio
ID                                       : 1
Format                                   : MPEG Audio
Format version                           : Version 1
Format profile                           : Layer 3
Mode                                     : Joint stereo
Mode extension                           : MS Stereo
Codec ID                                 : 55
Codec ID/Hint                            : MP3
Duration                                 : 21mn 27s
Bit rate mode                            : Variable
Bit rate                                 : 312 Kbps
Channel(s)                               : 2 channels
Sampling rate                            : 48.0 KHz
Compression mode                         : Lossy
Stream size                              : 48.0 MiB (6%)
Alignment                                : Aligned on interleaves
Interleave, duration                     : 24 ms (0.58 video frame)
Interleave, preload duration             : 51 ms
Writing library                          : LAME3.98.4-------------------------------------Torrent downloaded from http://thepiratebay.se
Archer 402.avi 849.668 MB
Gathering some info...

Register and log in Isohunt and see no captcha anymore!

4000 symbols left
Hash B409C70EFCCAC8323B8672E63AF37793B9948067

Related torrents for "Archer - 402 - 720p XBOX360/PS3 READY"

Torrent search:

hd