imdb
rating

7.3
Flight

Flight (2012)

Drama

Full description

flight 2012

Size 1.468 GB   0 seeders     Added 2013-01-27 15:59:40

Stream torrent
Starting‥ You need BitLord! Get it from 1BitLord.com
To download or stream you need BitLord. Visit them at BitLord.com
Video
ID : 0
Format : AVC
Format/Info : Advanced Video Codec
Format profile : Main@L5.1
Format settings, CABAC : Yes
Format settings, ReFrames : 1 frame
Codec ID : H264
Duration : 2h 18mn
Bit rate : 1 214 Kbps
Width : 1 280 pixels
Height : 720 pixels
Display aspect ratio : 16:9
Frame rate : 15.000 fps
Color space : YUV
Chroma subsampling : 4:2:0
Bit depth : 8 bits
Scan type : Progressive
Bits/(Pixel*Frame) : 0.088
Stream size : 1.18 GiB (86%)

Audio
ID : 1
Format : MPEG Audio
Format version : Version 1
Format profile : Layer 3
Codec ID : 55
Codec ID/Hint : MP3
Duration : 2h 18mn
Bit rate mode : Constant
Bit rate : 192 Kbps
Channel(s) : 2 channels
Sampling rate : 44.1 KHz
Compression mode : Lossy
Stream size : 190 MiB (14%)
Alignment : Split accross interleaves
Interleave, duration : 67 ms (1.00 video frame)
Interleave, preload duration : 266 ms
Writing library : LAMELAME_MAJOR_VERSI
Flight.2012.720p.BrRipx264 - DubsTeam.avi 1.468 GB
Gathering some info...

Register and log in Isohunt and see no captcha anymore!

4000 symbols left
Hash 443397D4489D06718DD86A452767BD5F89A1BC73

Related torrents for "flight 2012"

Torrent search:

2012