imdb
rating

6.9
Wild Target

Wild Target (2010)

Action, Comedy

Full description
quality   x264 hd bd dvdr h264 dvdrip fullhd dvd

Wild Target 2010 DVDrip English Klam

Size 1.674 GB   0 seeders     Added 2013-01-27 16:54:44

Stream torrent
Starting‥ You need BitLord! Get it from 1BitLord.com
To download or stream you need BitLord. Visit them at BitLord.com
With: Bill Nighy, Emily Blunt and Rupert Grint

In het eenzame leven van huurmoordenaar Victor Maynard duiken twee mensen op: Tony, een jongen, die de leerling van Victor wordt, en Rose, een mooie dievegge. Victor heeft de opdracht van een maffiabaas gekregen om haar te vermoorden, aangezien ze een gangster bedrogen zou hebben. Omstandigheden zorgen ervoor dat Victor dit niet doet, maar dan stapelen de problemen zich op. De maffiabaas stuurt extra mensen om haar te vermoorden. Victor besluit haar te helpen, maar al snel zitten ze ook achter hem aan.

A hitman tries to retire but a beautiful thief may change his plans.
 
http://www.imdb.com/title/tt1235189	

------------------------ Dutch Friends ------------------------
---------------------------------------------------------------
- Bezoek ook eens mijn vrienden op:  http://www.Film-Test.nl --
----- voor mijn Nederlandse Sync. ondertitels ---- en meer ----
------- http://www.Film-Test.nl ---- Over Films en meer -------
---------------------------------------------------------------

General:

Complete name                    : Wild TargetWild Target.avi
Format                           : AVI
Format/Info                      : Audio Video Interleave
File size                        : 1.56 GiB
Duration                         : 1h 33mn
Overall bit rate                 : 2 376 Kbps

Video:

Format                           : MPEG-4 Visual
Format profile                   : Simple@L3
Format settings, BVOP            : No
Format settings, QPel            : No
Format settings, GMC             : No warppoints
Format settings, Matrix          : Default (H.263)
Codec ID                         : XVID
Codec ID/Hint                    : XviD
Duration                         : 1h 33mn
Bit rate                         : 1 917 Kbps
Width                            : 704 pixels
Height                           : 396 pixels
Display aspect ratio             : 16:9
Frame rate                       : 25.000 fps
Color space                      : YUV
Chroma subsampling               : 4:2:0
Bit depth                        : 8 bits
Scan type                        : Progressive
Compression mode                 : Lossy
Bits/(Pixel*Frame)               : 0.275
Stream size                      : 1.26 GiB (81%)
Writing library                  : XviD 1.1.2 (UTC 2006-11-01)

Audio:

Format                           : AC-3
Format/Info                      : Audio Coding 3
Mode extension                   : CM (complete main)
Codec ID                         : 2000
Duration                         : 1h 33mn
Bit rate mode                    : Constant
Bit rate                         : 448 Kbps
Channel(s)                       : 6 channels
Channel positions                : Front: L C R, Side: L R, LFE
Sampling rate                    : 48.0 KHz
Bit depth                        : 16 bits
Compression mode                 : Lossy
Stream size                      : 301 MiB (19%)
Alignment                        : Aligned on interleaves
Interleave, duration             : 32 ms (0.80 video frame)
Interleave, preload duration     : 96 ms		
Cover/Wild Target.jpg 50.972 KB
Cover/www.Film-Test.nl.JPG 29.467 KB
New Dutch Site.txt 117 B
Gathering some info...

Register and log in Isohunt and see no captcha anymore!

4000 symbols left
Hash 29FA0A72D8F4BE7221AE8179CD50B4D133E0A009

Related torrents for "Wild Target 2010 DVDrip English Klam"

Torrent search:

dvdrip english 2010