imdb
rating

7.6
The Concert

The Concert (2009)

Comedy, Drama

Full description
quality  

Crosby, Stills And Nash The Acoustic Concert Mkv 480p Ac3 5.1

Size 1.273 GB   2 seeders     Added 2013-01-27 23:56:08

Stream torrent
Starting‥ You need BitLord! Get it from BitLord.com
To download or stream you need BitLord. Visit them at BitLord.com
Crosby, Stills And Nash The Acoustic Concert Mkv 480p Ac3 5.1

1.Déja Vu
2.Helplessly hoping
3.Just a song before I go
4.Guinnevere
5.Marrakesh express
6.Long time gone
7.To the last whale:
7.a A critical mass
7.b Wind on the water
8.Try to find me
9.1000 roads
10.For what it´s worth
11.Taken at all
12.Wooden ships
13.Suite: Judy Blue Eyes
14.Our house
15.Daylight again / Find the cost of freedom
16.Teach your children

General
Unique ID : 242542354394932029906572974533449997304 (0xB677F553E0F5668785666D99BFA9DBF8)
Crosby, Stills And Nash The Acoustic Concert Mkv 480p Ac3 5.1
Format : Matroska
Format version : Version 2
File size : 1.19 GiB
Duration : 1h 26mn
Overall bit rate mode : Variable
Overall bit rate : 1 970 Kbps
Movie name : Crosby, Stills And Nash The Acoustic Concert Mkv 480p Ac3 5 1
Encoded date : UTC 2013-01-27 14:26:31
Writing application : mkvmerge v5.7.0 ('The Whirlwind') built on Jul 8 2012 20:08:51
Writing library : libebml v1.2.3 + libmatroska v1.3.0

Video
ID : 1
Format : AVC
Format/Info : Advanced Video Codec
Format profile : High@L4.0
Format settings, CABAC : Yes
Format settings, ReFrames : 3 frames
Codec ID : V_MPEG4/ISO/AVC
Duration : 1h 26mn
Bit rate mode : Variable
Bit rate : 1 483 Kbps
Maximum bit rate : 25.0 Mbps
Width : 720 pixels
Height : 480 pixels
Display aspect ratio : 4:3
Frame rate mode : Constant
Frame rate : 60.000 fps
Original frame rate : 59.940 fps
Standard : NTSC
Color space : YUV
Chroma subsampling : 4:2:0
Bit depth : 8 bits
Scan type : Progressive
Bits/(Pixel*Frame) : 0.072
Stream size : 914 MiB (75%)
Writing library : x264 core 125 r2208 d9d2288
Encoding settings : cabac=1 / ref=3 / deblock=1:0:0 / analyse=0x3:0x113 / me=hex / subme=7 / psy=1 / psy_rd=1.00:0.00 / mixed_ref=1 / me_range=16 / chroma_me=1 / trellis=1 / 8x8dct=1 / cqm=0 / deadzone=21,11 / fast_pskip=1 / chroma_qp_offset=-2 / threads=12 / lookahead_threads=2 / sliced_threads=0 / nr=0 / decimate=1 / interlaced=0 / bluray_compat=0 / constrained_intra=0 / bframes=3 / b_pyramid=0 / b_adapt=1 / b_bias=0 / direct=1 / weightb=1 / open_gop=0 / weightp=2 / keyint=600 / keyint_min=60 / scenecut=40 / intra_refresh=0 / rc_lookahead=40 / rc=crf / mbtree=1 / crf=20.0 / qcomp=0.60 / qpmin=0 / qpmax=69 / qpstep=4 / vbv_maxrate=25000 / vbv_bufsize=25000 / crf_max=0.0 / nal_hrd=vbr / ip_ratio=1.40 / aq=1:1.00
Default : Yes
Forced : No

Audio
ID : 2
Format : AC-3
Format/Info : Audio Coding 3
Mode extension : CM (complete main)
Format settings, Endianness : Big
Codec ID : A_AC3
Duration : 1h 26mn
Bit rate mode : Constant
Bit rate : 448 Kbps
Channel(s) : 6 channels
Channel positions : Front: L C R, Side: L R, LFE
Sampling rate : 48.0 KHz
Bit depth : 16 bits
Compression mode : Lossy
Stream size : 276 MiB (23%)
Language : English
Default : Yes
Forced : No		
Crosby, Stills And Nash The Acoustic Concert Mkv 480p Ac3 5 1.mkv 1.273 GB
Gathering some info...

Register and log in Isohunt and see no captcha anymore!

4000 symbols left
Hash 37D10105E2E0FEF11702712C5443CB4C804C61C2

Related torrents for "Crosby, Stills And Nash The Acoustic Concert Mkv 480p Ac3 5.1"