I Against I 2012 DVDRip English [Accipiter]

Size 730.896 MB   13 seeders     Added 2013-01-28 02:40:51

Stream torrent
Starting‥ You need BitLord! Get it from 1BitLord.com
To download or stream you need BitLord. Visit them at BitLord.com
Release info:

General
Format                                   : Matroska
Format version                           : Version 4 / Version 2
File size                                : 697 MiB
Duration                                 : 1h 15mn
Overall bit rate                         : 1 296 Kbps

Video
ID                                       : 1
Format                                   : MPEG-4 Visual
Format profile                           : Advanced Simple@L5
Format settings, BVOP                    : Yes
Format settings, QPel                    : No
Format settings, GMC                     : No warppoints
Format settings, Matrix                  : Default (H.263)
Codec ID                                 : V_MS/VFW/FOURCC / XVID
Codec ID/Hint                            : XviD
Duration                                 : 1h 15mn
Bit rate                                 : 1 142 Kbps
Width                                    : 640 pixels
Height                                   : 272 pixels
Display aspect ratio                     : 2.35:1
Frame rate mode                          : Constant
Frame rate                               : 25.000 fps
Color space                              : YUV
Chroma subsampling                       : 4:2:0
Bit depth                                : 8 bits
Scan type                                : Progressive
Compression mode                         : Lossy
Bits/(Pixel*Frame)                       : 0.263
Stream size                              : 614 MiB (88%)
Language                                 : English
Default                                  : Yes
Forced                                   : No

Audio
ID                                       : 2
Format                                   : MPEG Audio
Format version                           : Version 1
Format profile                           : Layer 3
Codec ID                                 : A_MPEG/L3
Codec ID/Hint                            : MP3
Duration                                 : 1h 15mn
Bit rate mode                            : Constant
Bit rate                                 : 128 Kbps
Channel(s)                               : 2 channels
Sampling rate                            : 48.0 KHz
Compression mode                         : Lossy
Stream size                              : 68.8 MiB (10%)
Language                                 : English
Default                                  : Yes
Forced                                   : No

Source:
credit to original movie ripper AbSurdiTy (Thanks)

IMDB Info:

Focusing on the timeless themes of jealousy, murder and betrayal, 'I Against I' is set over... 

Directors: Mark Cripps, David Ellison, 
Stars: Kenny Doughty, Ingvar Eggert Sigurðsson and Mark Womack 

Genres: Crime | Thriller
 
http://www.imdb.com/title/tt1986034/

Screen Shot:
 
image 
image 
image 
image		
I Against I 2012 DVDRip English [Accipiter]/I Against I 2012 DVDRip English [Accipiter].mkv 730.895 MB
I Against I 2012 DVDRip English [Accipiter]/Torrent Downloaded From Digtorrent.org.txt 346 B
I Against I 2012 DVDRip English [Accipiter]/Torrent downloaded from souravfile torrents on BTScene.eu.txt 69 B
Gathering some info...

Register and log in Isohunt and see no captcha anymore!

4000 symbols left
Hash 8db4ab5a7695a657f09072b64cbd3bab80603b70

Related torrents for "I Against I 2012 DVDRip English [Accipiter]"

Torrent search:

dvdrip english 2012