Madly

Madly (2016)

Full description
quality   dvdrip x264

Madly Madagascar 2012 DVDRip English

Size 335.177 MB   12 seeders     Added 2013-01-28 02:59:19

Stream torrent
Starting‥ You need BitLord! Get it from BitLord.com
To download or stream you need BitLord. Visit them at BitLord.com
Release info:

General
Format                                   : Matroska
Format version                           : Version 4 / Version 2
File size                                : 320 MiB
Duration                                 : 35mn 8s
Overall bit rate                         : 1 271 Kbps
Movie name                               : Madly Madagascar 2012 DVDRip English

Video
ID                                       : 1
Format                                   : MPEG-4 Visual
Format profile                           : Advanced Simple@L5
Format settings, BVOP                    : Yes
Format settings, QPel                    : No
Format settings, GMC                     : No warppoints
Format settings, Matrix                  : Default (H.263)
Codec ID                                 : V_MS/VFW/FOURCC / XVID
Codec ID/Hint                            : XviD
Duration                                 : 35mn 8s
Bit rate                                 : 1 118 Kbps
Width                                    : 720 pixels
Height                                   : 384 pixels
Display aspect ratio                     : 1.85:1
Frame rate mode                          : Constant
Frame rate                               : 23.976 fps
Color space                              : YUV
Chroma subsampling                       : 4:2:0
Bit depth                                : 8 bits
Scan type                                : Progressive
Compression mode                         : Lossy
Bits/(Pixel*Frame)                       : 0.169
Stream size                              : 281 MiB (88%)
Title                                    : Madly Madagascar 2012 DVDRip English
Writing library                          : XviD 64
Language                                 : English
Default                                  : Yes
Forced                                   : No

Audio
ID                                       : 2
Format                                   : MPEG Audio
Format version                           : Version 1
Format profile                           : Layer 3
Mode                                     : Joint stereo
Mode extension                           : MS Stereo
Codec ID                                 : A_MPEG/L3
Codec ID/Hint                            : MP3
Duration                                 : 22mn 7s
Bit rate mode                            : Constant
Bit rate                                 : 128 Kbps
Channel(s)                               : 2 channels
Sampling rate                            : 44.1 KHz
Compression mode                         : Lossy
Stream size                              : 20.3 MiB (6%)
Title                                    : Madly Madagascar 2012 DVDRip English
Language                                 : English
Default                                  : Yes
Forced                                   : No


Source:
credit to original movie ripper MATiNE (Thanks)

IMDB Info:

Valentines day is one of Alex’s FAVORITE holidays! Back in the zoo, he was practically showered with valentines from numerous admirers, but now that he’s in Africa, he’s finding that valentines day is not what he was used to… can he still enjoy the day even though he’s not getting the amount of attention he’s used to having especially since his best friend is getting all the attention he himself is used to and more?

Genre: Animation | Adventure



Screen Shot:
 
image 
image 
image 
image		
Madly Madagascar 2012 DVDRip English.mkv 335.177 MB
Torrent Downloaded From Digtorrent.org.txt 346 B
Torrent downloaded from souravfile torrents on BTScene.eu.txt 69 B
Gathering some info...

Register and log in Isohunt and see no captcha anymore!

4000 symbols left
Hash 470D9A193675BB778F8DD34965F8C02A479F75C8

Related torrents for "Madly Madagascar 2012 DVDRip English"

Torrent search:

dvdrip english 2012