Something Special

Something Special

Full description

Something Special - Mr Tumble - Full Episode - Baby Animals.mp4

Size 84.396 MB   0 seeders     Added 2013-01-28 20:01:23

Stream torrent
Starting‥ You need BitLord! Get it from BitLord.com
To download or stream you need BitLord. Visit them at BitLord.com
Children's programme using the Makaton sign language system. Mr Tumble is sad because he has lost his kitten.

Video
Duration : 19mn 14s
Bit rate : 487 Kbps
Maximum bit rate : 1 327 Kbps
Width : 640 pixels
Height : 356 pixels
Display aspect ratio : 16:9
Frame rate mode : Constant
Frame rate : 25.000 fps
Color space : YUV
Stream size : 66.9 MiB (83%)
Tagged date : UTC 2012-11-13 08:37:08
Audio
ID : 2
Format : AAC
Format/Info : Advanced Audio Codec
Format profile : LC
Codec ID : 40
Duration : 19mn 13s
Bit rate mode : Variable
Bit rate : 96.0 Kbps
Maximum bit rate : 104 Kbps
Channel(s) : 2 channels
Channel positions : Front: L R
Sampling rate : 44.1 KHz
Compression mode : Lossy
Stream size : 13.2 MiB (16%)
Something Special - Mr Tumble - Full Episode - Baby Animals.mp4 84.396 MB
Gathering some info...

Register and log in Isohunt and see no captcha anymore!

4000 symbols left
Hash 59BAC7E509FEDE256961AF74B38792DEED4BD696

Related torrents for "Something Special - Mr Tumble - Full Episode - Baby Animals.mp4"