imdb
rating

 
Unplugged

Unplugged (2011)

Drama

Full description
quality   dvdrip hdtv hd fullhd

Kiss Mtv Unplugged Mkv 480p Ac3 5.1

Size 1.546 GB   2 seeders     Added 2013-01-28 23:00:21

Stream torrent
Starting‥ You need BitLord! Get it from BitLord.com
To download or stream you need BitLord. Visit them at BitLord.com
Kiss Mtv Unplugged Mkv 480p Ac3 5.1

Track List:
01. Comin' Home
02. Plaster Caster
03. Goin' Blind
04. Do You Love Me
05. Domino
06. Sure Know Something
07. A World Without Heroes
08. Rock Bottom
09. See You Tonight
10. I Still Love You
11. Every Time I Look At You
12. 2,000 Man
13. Beth
14. Nothin' To Lose
15. Rock And Roll All Nite

General
Unique ID : 221147624932089781554327002848487829077 (0xA65F7BB976653DA2BF67E3AFB6306E55)
Kiss Mtv Unplugged Mkv 480p Ac3 5.1
Format : Matroska
Format version : Version 2
File size : 1.44 GiB
Duration : 1h 31mn
Overall bit rate mode : Variable
Overall bit rate : 2 253 Kbps
Movie name : Kiss Mtv Unplugged Mkv
Encoded date : UTC 2013-01-28 12:41:49
Writing application : mkvmerge v5.7.0 ('The Whirlwind') built on Jul 8 2012 20:08:51
Writing library : libebml v1.2.3 + libmatroska v1.3.0

Video
ID : 1
Format : AVC
Format/Info : Advanced Video Codec
Format profile : High@L4.0
Format settings, CABAC : Yes
Format settings, ReFrames : 3 frames
Codec ID : V_MPEG4/ISO/AVC
Duration : 1h 31mn
Bit rate mode : Variable
Bit rate : 1 760 Kbps
Maximum bit rate : 25.0 Mbps
Width : 720 pixels
Height : 480 pixels
Display aspect ratio : 4:3
Frame rate mode : Constant
Frame rate : 60.000 fps
Original frame rate : 59.940 fps
Standard : NTSC
Color space : YUV
Chroma subsampling : 4:2:0
Bit depth : 8 bits
Scan type : Progressive
Bits/(Pixel*Frame) : 0.085
Stream size : 1.13 GiB (78%)
Writing library : x264 core 125 r2208 d9d2288
Encoding settings : cabac=1 / ref=3 / deblock=1:0:0 / analyse=0x3:0x113 / me=hex / subme=7 / psy=1 / psy_rd=1.00:0.00 / mixed_ref=1 / me_range=16 / chroma_me=1 / trellis=1 / 8x8dct=1 / cqm=0 / deadzone=21,11 / fast_pskip=1 / chroma_qp_offset=-2 / threads=12 / lookahead_threads=2 / sliced_threads=0 / nr=0 / decimate=1 / interlaced=0 / bluray_compat=0 / constrained_intra=0 / bframes=3 / b_pyramid=0 / b_adapt=1 / b_bias=0 / direct=1 / weightb=1 / open_gop=0 / weightp=2 / keyint=600 / keyint_min=60 / scenecut=40 / intra_refresh=0 / rc_lookahead=40 / rc=crf / mbtree=1 / crf=24.0 / qcomp=0.60 / qpmin=0 / qpmax=69 / qpstep=4 / vbv_maxrate=25000 / vbv_bufsize=25000 / crf_max=0.0 / nal_hrd=vbr / ip_ratio=1.40 / aq=1:1.00
Default : Yes
Forced : No

Audio
ID : 2
Format : AC-3
Format/Info : Audio Coding 3
Mode extension : CM (complete main)
Format settings, Endianness : Big
Codec ID : A_AC3
Duration : 1h 31mn
Bit rate mode : Constant
Bit rate : 448 Kbps
Channel(s) : 6 channels
Channel positions : Front: L C R, Side: L R, LFE
Sampling rate : 48.0 KHz
Bit depth : 16 bits
Compression mode : Lossy
Stream size : 293 MiB (20%)
Default : Yes
Forced : No		
Kiss Mtv Unplugged Mkv 480p Ac3 5.1.mkv 1.546 GB
Gathering some info...

Register and log in Isohunt and see no captcha anymore!

4000 symbols left
Hash 0EDD3CC622941BA1D8701DAEE45A47E7F4FE5CC6

Related torrents for "Kiss Mtv Unplugged Mkv 480p Ac3 5.1"