imdb
rating

8.2
Barfi!

Barfi! (2012)

Comedy, Drama, Romance

Full description
quality   screener x264 dvdrip hd bd

Barfi 2012 BRRip 720p x264 AAC - ViZNU [P2PDL]

Size 914.794 MB   52 seeders     Added 2013-01-28 23:04:44

Stream torrent
Starting‥ You need BitLord! Get it from BitLord.com
10
To download or stream you need BitLord. Visit them at BitLord.com
[IMG]image[/IMG]


[b]Barfi 2012 BRRip 720p x264 AAC - ViZNU [P2PDL][/b]

				
[code]Genre: Comedy | Drama | Romance
Three young people learn that love can neither be defined nor contained by society's norms of normal and abnormal.
Director: Anurag Basu
Stars: Ranbir Kapoor, Priyanka Chopra, Ileana D'Cruz and Haradhan Bannerjee
Rated: N/A[/code]

[b]Imdb:[/b] [url]http://www.imdb.com/title/tt2082197/[/url]

[b]Trailer:[/b] [url]https://www.youtube.com/watch?v=yZxrao3zou4[/url]


[code]General
Format : MPEG-4
File size : 866 MiB
Duration : 2h 31mn
Overall bit rate mode : Variable
Overall bit rate : 802 Kbps
Movie name : Barfi 2012 BRRip 720p x264 AAC ViZNU [P2PDL]

Source : 720p - x264 - AC3 - [DDR] (Thanks)

Video
ID : 1
Format : AVC
Width : 1 280 pixels
Height : 544 pixels
Display aspect ratio : 2.35:1
Frame rate mode : Variable
Frame rate : 24.000 fps
Stream size : 756 MiB (87%)
Writing library : x264 core 128

Audio
Format : AAC
Bit rate : 96.0 Kbps
Sampling rate : 48.0 KHz
Stream size : 104 MiB (12%)
Language : Hindi

Subtitle : Yes (English)[/code]


[b]Screens:[/b]

[img]image[/img]
[img]image[/img]
[img]image[/img]
[img]image[/img]
[img]image[/img]


[b]Thumbs:[/b]

[img]image[/img]

[img]image[/img]

----------------------------------------------------------------------------------------------------


[code]Recommend to you to use latest version of VLC player. Install K-Lite Codec Pack or shark007 codecs
in case of any kind of problem in playback (For non-VLC Media Player users). Alternatively, install
Core AVC codecs, the fastest decoder that there is coupled with Community Center Codec Pack and play
on Windows Media Player Classic. Check sample to be sure.
Enjoy!

Greets to: Vitamin_X, a2zRG, MusiK_KinG, Neon, Kuroyukihime, TorDigger, Ash968, StyLishSaLH and staff members at
ExtraTorrent, TPB, H33T, KAT, 1337x, PublicHD, Ahashare, BTScene, SilverTorrent, LimeTorrents, TorrentMafia,
P2PDL, and all others.

Encoder Notes: Looking For Early Access To Anything You Can Provide DVDScr, R5, DVDR, BluRay, Direct
Audio, Early Music Releases, Seedboxes, Dedicated Servers anything u can provide, Advance / Promo CDs/
DVDs. If You Got anything to offer contact me at "prg@hush.com".[/code]

[URL=http://www.facebook.com/p2pdl][IMG]image[/IMG][/URL]
Barfi 2012 BRRip 720p x264 AAC - ViZNU [P2PDL].mp4 907.898 MB
Barfi 2012 BRRip 720p x264 AAC - ViZNU [P2PDL].nfo 5.298 KB
Barfi 2012 BRRip 720p x264 AAC - ViZNU [P2PDL].srt 41.986 KB
Gathering some info...

Register and log in Isohunt and see no captcha anymore!

4000 symbols left
Hash 1CD322A5F9941DDFC04F695401A837FDBD35F54A

Related torrents for "Barfi 2012 BRRip 720p x264 AAC - ViZNU [P2PDL]"

Torrent search:

x264 hd 2012 bd