imdb
rating

6.1
Wrong Turn

Wrong Turn (2003)

Horror, Thriller

Full description
quality   x264 hd bd h264 dvdrip fullhd

Wrong Turn (2003)720P Br-Rip Multi Audio [ Tam + Hin + Eng ] [ X264 - Ac3 - 700MB ] [Esub].mkv

Size 772.795 MB   0 seeders     Added 2013-01-29 00:20:47

Stream torrent
Starting‥ You need BitLord! Get it from BitLord.com
To download or stream you need BitLord. Visit them at BitLord.com
[center][b][size=150]Wrong Turn (2003)[/size][/b]

[IMG]image[/IMG]

[url="http://www.imdb.com/title/tt0295700/"][IMG]image[/IMG][/url]

General
 
File size : 737 MiB
Duration : 1h 28mn
Overall bit rate : 1 163 Kbps





Video
ID : 1
Format : AVC
Format/Info : Advanced Video Codec
Format profile : High@L4.0
Format settings, CABAC : Yes
Format settings, ReFrames : 9 frames
Nominal bit rate : 979 Kbps
Width : 1 280 pixels
Height : 688 pixels
Display aspect ratio : 1.85:1
Frame rate mode : Variable
Original frame rate : 23.976 fps
Forced : No

Audio #1
ID : 2
Format : AC-3
Duration : 1h 28mn
Bit rate mode : Constant
Bit rate : 128 Kbps
Channel(s) : 2 channels
Sampling rate : 48.0 KHz
Bit depth : 16 bits
Stream size : 81.1 MiB (11%)
Language : Tamil
Default : Yes


Audio #2
ID : 3
Format : AAC
Duration : 1h 28mn
Sampling rate : 48.0 KHz
Language : English


Audio #3
ID : 4
Format : AC-3
Duration : 1h 28mn
Bit rate mode : Constant
Bit rate : 64.0 Kbps
Sampling rate : 44.1 KHz
Bit depth : 16 bits
Compression mode : Lossy
Stream size : 40.5 MiB (6%)
Language : Hindi



Text #1
ID : 5
Codec ID : S_TEXT/ASS
Language : English


[color=blue][b]Note :- English Audio Set Volume higher to get nice sound[/b]
[/color]

[b][color=red]Screen Shots[/color][/b] 

[IMG]image[/IMG]
[IMG]image[/IMG]
[IMG]image[/IMG]
[IMG]image[/IMG]
[/center]
www.TamilRockers.Net - Wrong Turn (2003)720P Br-Rip Multi Audio[ X264 - Ac3 - 700MB ].mkv 772.795 MB
Gathering some info...

Register and log in Isohunt and see no captcha anymore!

4000 symbols left
Hash A5A70C1132A3778F8EEE8961D7C34C5074677E17

Related torrents for "Wrong Turn (2003)720P Br-Rip Multi Audio [ Tam + Hin + Eng ] [ X264 - Ac3 - 700MB ] [Esub].mkv"

Torrent search:

english 2003 x264 hd hindi bd