imdb
rating

7.4
Kali

Kali (2016)

Full description
quality   dvdrip x264 hd fullhd

Kali Salwaar (2002) 1CD DVDRip XviD 2CH AC3

Size 652.557 MB   1 seeders     Added 2013-01-29 00:36:13

Stream torrent
Starting‥ You need BitLord! Get it from BitLord.com
To download or stream you need BitLord. Visit them at BitLord.com
Kali Salwaar (2002)
 
image


INFO

[code]Rip Information


Format                                   : AVI
Format/Info                              : Audio Video Interleave
File size                                : 611 MiB
Duration                                 : 2h 3mn
Overall bit rate                         : 694 Kbps

[/code]

[code]Video


Codec ID                                 : XVID
Codec ID/Hint                            : XviD
Duration                                 : 2h 3mn
Bit rate                                 : 557 Kbps
Width                                    : 688 pixels
Height                                   : 400 pixels
Display aspect ratio                     : 16:9
Frame rate                               : 29.970 fps
Color space                              : YUV
Chroma subsampling                       : 4:2:0
Bit depth                                : 8 bits
Scan type                                : Progressive
Compression mode                         : Lossy
Bits/(Pixel*Frame)                       : 0.068
Stream size                              : 490 MiB (80%)
Writing library                          : XviD 1.2.1 (UTC 2008-12-04)

[/code]


[code]Audio


Format                                   : AC-3
Format/Info                              : Audio Coding 3
Mode extension                           : CM (complete main)
Format settings, Endianness              : Big
Codec ID                                 : 2000
Duration                                 : 2h 3mn
Bit rate mode                            : Constant
Bit rate                                 : 128 Kbps
Channel(s)                               : 2 channels
Channel positions                        : Front: L R
Sampling rate                            : 48.0 KHz
Bit depth                                : 16 bits
Compression mode                         : Lossy
Stream size                              : 113 MiB (18%)

[/code]



SCREENSHOTS
 
image
 
image
 
image
 
image
 
image
 
image
 
image
 
image
 
image
 
image
 
image		
DVD Cover.jpg 1.661 MB
Kali Salwaar (2002) 1CD DVDRip XviD 2CH AC3.avi 640.421 MB
Sample/Sample - Kali Salwaar (2002) 1CD DVDRip XviD 2CH AC3.avi 10.474 MB
Gathering some info...

Register and log in Isohunt and see no captcha anymore!

4000 symbols left
Hash 6A7A6632C6D24B0B532C837C603AD63CC68791EE

Related torrents for "Kali Salwaar (2002) 1CD DVDRip XviD 2CH AC3"

Torrent search:

dvdrip 2002