peso pesado By calidadmkv HD1080p latino mkv

Size 2.211 GB   0 seeders     Added 2013-01-29 01:35:29

Stream torrent
Starting‥ You need BitLord! Get it from 1BitLord.com
To download or stream you need BitLord. Visit them at BitLord.com
General

Format                           : Matroska
File size                        : 2.06 GiB
Duration                         : 1h 44mn
Overall bit rate                 : 2 809 Kbps
Movie name                       : peso pesado  By
Encoded date                     : UTC 2013-01-28 04:18:21
Writing application              : mkvmerge v5.8.0 ('No Sleep / Pillow') built on Sep  2 2012 15:37:04
Writing library                  : libebml v1.2.3 + libmatroska v1.3.0

Video
ID                               : 1
Format                           : AVC
Format/Info                      : Advanced Video Codec
Format profile                   : High@L4.0
Format settings, CABAC           : Yes
Format settings, ReFrames        : 2 frames
Muxing mode                      : Header stripping
Codec ID                         : V_MPEG4/ISO/AVC
Duration                         : 1h 44mn
Bit rate                         : 2 169 Kbps
Width                            : 1 920 pixels
Height                           : 1 040 pixels
Display aspect ratio             : 16:9
Frame rate mode                  : Variable
Frame rate                       : 23.976 fps
Color space                      : YUV
Chroma subsampling               : 4:2:0
Bit depth                        : 8 bits
Scan type                        : Progressive
Bits/(Pixel*Frame)               : 0.045
Stream size                      : 1.55 GiB (75%)
Title                            : peso pesado  By
Writing library                  : x264 core 112 r1834 a51816a
Encoding settings                : cabac=1 / ref=2 / deblock=1:0:0 / 


Audio

ID                               : 2
Format                           : AC-3
Format/Info                      : Audio Coding 3
Mode extension                   : CM (complete main)
Muxing mode                      : Header stripping
Codec ID                         : A_AC3
Duration                         : 1h 44mn
Bit rate mode                    : Constant
Bit rate                         : 640 Kbps
Channel(s)                       : 6 channels
Channel positions                : Front: L C R, Side: L R, LFE
Sampling rate                    : 48.0 KHz
Bit depth                        : 16 bits
Compression mode                 : Lossy
Stream size                      : 480 MiB (23%)
Title                            : peso pesado  By
Language                         : Spanish
		
peso pesado By calidadmkv HD1080p latino.mkv 2.211 GB
Gathering some info...

Register and log in Isohunt and see no captcha anymore!

4000 symbols left
Hash 981FE682F08E8D20604211F57BD2AF9F08260632