Race 2 2013 DVDScr Hindi [EngSub]

Size 721.585 MB   6 seeders     Added 2013-01-29 02:54:32

Stream torrent
Starting‥ You need BitLord! Get it from BitLord.com
10
To download or stream you need BitLord. Visit them at BitLord.com
[img]image[/img]

[b]Cover:[/b]

[img]image[/img]

[b]Release info:[/b]

[code]General
Format : Matroska
Format version : Version 4 / Version 2
File size : 688 MiB
Duration : 2h 22mn
Overall bit rate : 677 Kbps
Movie name : Race 2 2013 DVDScr Hindi [EngSub]

Video
ID : 1
Format : MPEG-4 Visual
Format profile : Advanced Simple@L5
Format settings, BVOP : Yes
Format settings, QPel : No
Format settings, GMC : No warppoints
Format settings, Matrix : Default (MPEG)
Codec ID : V_MS/VFW/FOURCC / XVID
Codec ID/Hint : XviD
Duration : 2h 22mn
Bit rate : 583 Kbps
Width : 640 pixels
Height : 272 pixels
Display aspect ratio : 2.35:1
Frame rate mode : Constant
Frame rate : 23.976 fps
Color space : YUV
Chroma subsampling : 4:2:0
Bit depth : 8 bits
Scan type : Progressive
Compression mode : Lossy
Bits/(Pixel*Frame) : 0.140
Stream size : 593 MiB (86%)
Title : Race 2 2013 DVDScr Hindi [EngSub]
Language : Hindi
Default : Yes
Forced : No

Audio
ID : 2
Format : MPEG Audio
Format version : Version 1
Format profile : Layer 3
Mode : Joint stereo
Mode extension : MS Stereo
Codec ID : A_MPEG/L3
Codec ID/Hint : MP3
Duration : 1h 11mn
Bit rate mode : Constant
Bit rate : 80.0 Kbps
Channel(s) : 2 channels
Sampling rate : 32.0 KHz
Compression mode : Lossy
Stream size : 40.7 MiB (6%)
Title : Race 2 2013 DVDScr Hindi [EngSub]
Writing library : LAME3.99r
Encoding settings : -m j -V 4 -q 2 -lowpass 13.5 -b 80
Language : Hindi
Default : Yes
Forced : No

Text
ID : 3
Format : UTF-8
Codec ID : S_TEXT/UTF8
Codec ID/Info : UTF-8 Plain Text
Title : Race 2 2013 DVDScr Hindi [EngSub]
Language : English
Default : Yes
Forced : No



Source:
credit to original movie ripper DDR (Thanks)[/code]

[b]IMDB Info:[/b]

[code]Ranvir treads through the world of the Indian mafia in Turkey as he looks to avenge the death of his lover and partner in crime.

Directors: Abbas Alibhai Burmawalla, Mastan Alibhai Burmawalla
Writers: Shiraz Ahmed (screenplay), Kiran Kotrial (dialogue)
Stars: Saif Ali Khan, Anil Kapoor and John Abraham 

Genres: Thriller | Action | Crime | Drama[/code]

http://www.imdb.com/title/tt1375789/

[b]Screen Shot:[/b]

[img]image[/img]
[img]image[/img]
[img]image[/img]
[img]image[/img]
Race 2 2013 DVDScr Hindi [EngSub].mkv 721.582 MB
Torrent Downloaded From Digtorrent.org.txt 346 B
Torrent Downloaded From DivXHunt.tk.nfo 2.281 KB
Gathering some info...

Register and log in Isohunt and see no captcha anymore!

4000 symbols left
Hash D1980D974356F996E3ABA3EBC374CDD5EBE32529

Related torrents for "Race 2 2013 DVDScr Hindi [EngSub]"

Torrent search:

screener hindi 2013