imdb
rating

7.6
Crosby, Stills & Nash: Daylight Again

Crosby, Stills & Nash: Daylight Again (1983)

Music

Full description
quality   dvdrip

Crosby, Stills And Nash Daylight Again Mkv 548p Ac3 5.1

Size 1.788 GB   0 seeders     Added 2013-01-29 06:18:40

Stream torrent
Starting‚Ä• You need BitLord! Get it from 1BitLord.com
To download or stream you need BitLord. Visit them at BitLord.com

01.Turn Your Back On Love
02.Chicago
03.Just A Song Before I Go
04.Wooden Ships
05.Dark Star
06.Barrel Of Pain
07.To The Last Whale...: A. Critical Mass
B. Wind On The Water
08.You Don't Have To Cry
09.Blackbird
10.Wasted On The Way
11.Delta
12.Treetop Flyer
13.Magical Child
14.Suite: Judy Blue Eyes
15.Cathedral
16.Southern Cross
17.Long Time Gone
18.For What It's Worth
19.Love The One You're With
20.Teach Your Children
21.Daylight Again (end credits)

General
Unique ID : 212740266499363685220950420703122498248 (0xA00C48F35286017497A432AA9BDB22C8)
Crosby, Stills And Nash Daylight Again Mkv
Format : Matroska
Format version : Version 2
File size : 1.67 GiB
Duration : 1h 47mn
Overall bit rate : 2 222 Kbps
Movie name : CROSBY, STILLS AND NASH DAYLIGHT AGAIN.Title7.DVDRip
Encoded date : UTC 2013-01-28 21:17:31
Writing application : DVDFab
Writing library : libebml v0.7.8 + libmatroska v0.8.1

Video
ID : 1
Format : AVC
Format/Info : Advanced Video Codec
Format profile : Main@L3.1
Format settings, CABAC : Yes
Format settings, ReFrames : 2 frames
Codec ID : V_MPEG4/ISO/AVC
Duration : 1h 47mn
Bit rate : 1 729 Kbps
Width : 720 pixels
Height : 548 pixels
Display aspect ratio : 4:3
Frame rate mode : Constant
Frame rate : 29.970 fps
Color space : YUV
Chroma subsampling : 4:2:0
Bit depth : 8 bits
Scan type : Progressive
Bits/(Pixel*Frame) : 0.146
Stream size : 1.30 GiB (78%)
Writing library : x264 core
Default : Yes
Forced : No
Color primaries : BT.601 NTSC
Transfer characteristics : BT.709
Matrix coefficients : BT.601

Audio
ID : 2
Format : AC-3
Format/Info : Audio Coding 3
Mode extension : CM (complete main)
Format settings, Endianness : Big
Codec ID : A_AC3
Duration : 1h 47mn
Bit rate mode : Constant
Bit rate : 448 Kbps
Channel(s) : 6 channels
Channel positions : Front: L C R, Side: L R, LFE
Sampling rate : 48.0 KHz
Bit depth : 16 bits
Compression mode : Lossy
Stream size : 344 MiB (20%)
Default : Yes
Forced : No		
Crosby, Stills And Nash Daylight Again Mkv 548p Ac3 5.1.mkv 1.788 GB
Gathering some info...

Register and log in Isohunt and see no captcha anymore!

4000 symbols left
Hash 0CD7D07CC9BEF677E0BB8AA3700712CC0E7C9FDC

Related torrents for "Crosby, Stills And Nash Daylight Again Mkv 548p Ac3 5.1"