Spartacus S03E01 Enemies of Rome HDTV XviD Eng Sub_Ita-[iDN_CreW]

Size 433.05 MB   10 seeders     Added 2013-01-29 06:21:14

Stream torrent
Starting‥ You need BitLord! Get it from BitLord.com
To download or stream you need BitLord. Visit them at BitLord.com
[img]image[/img]

[color=red]Spartacus: War of the Damned [/color]
HDTV XviD Eng Sub Ita 

[img]image[/img]

[color=red]Titolo:[/color] Spartacus: War of the Damned
[color=red]Anno: [/color]2013
[color=red]Nazionalità: [/color]USA 
[color=red]Genere:[/color] azione, storico, drammatico
[color=red]Lingua:[/color] Inglese
[color=red]Stagione:[/color] 3
[color=red]Episodi:[/color] 10
[color=red]Durata Episodio:[/color] 55 min ca (episodio)
[color=red]Ideatore:[/color] Steven DeKnight
[color=red]Distribuzione USA:[/color] Starz (dal 25 gennaio 2013 e in corso)
[color=red]Distribuzione ITALIA:[/color] Sky Uno (data da precisare)


[img]image[/img]

[color=red]Spartacus[/color], interpretato da Liam McIntyre : È un trace che, venduto come schiavo, riesce ad ottenere il consenso del popolo battendo quattro gladiatori incaricati della sua esecuzione e a diventare un grande gladiatore presso la scuola di Batiato. 

[color=red]Gannicus[/color] interpretato da Dustin Clare: Sfrontato e impertinente, è uno dei campioni della palestra (ludus) del lanista Quintus Lentulus Batiatus nella serie televisiva [Spartacus - Gli dei dell'arena]

[color=red]Crisso[/color] interpretato da Manu Bennett: L'"indomito gallo", è uno dei gladiatori migliori della scuola di Batiato che, visto il suo agonismo, ha un astio profondo nei confronti di Spartacus.

[color=red]Naevia [/color] interpretato da Cynthia Addai Robinson: 

[color=red]Agron [/color] interpretato da Dan Feuerriegel: 

[color=red]Saxa [/color] interpretato da Ellen Hollman: 

[color=red]Gaio Giulio Cesare [/color] interpretato da Todd Lasance: 

[color=red]Marco Crasso[/color] interpretato da Simon Merrells: 

[color=red]Laeta [/color] interpretato da Anna Hutchison: 



[img]image[/img]

[img]image[/img]

La terza stagione riprenderà le vicende di Spartaco e dei gladiatori, che si muoveranno in nuove città e incontreranno nuovi personaggi (tra cui Marco Crasso e Cesare).
Avremo due fazioni contrapposte: I gladiatori ribelli e i romani.
"Spartacus: War of the Damned" si svolge dopo la sconfitta del condottiero 
romano Caio Claudio Glabro. Spartaco e i suoi uomini hanno accumulato importanti 
vittorie contro i Romani dopo la battaglia del Vesuvio. Queste vittorie non solo 
hanno forgiato la leggenda di Spartaco, ma hanno notevolmente aumentato le fila 
degli schiavi ribelli a più di 30.000. Roma comincierà a tremare per la minaccia 
che ora Spartacus rappresenta.


[img]image[/img]

[color=red]1 Enemies of Rome [/color]
 2 Wolves at the Gate 
 3 Men of Honor 
 4 Decimation
 5 Blood Brothers
 6 Spoils of War
 7 Mors Idecepta
 8 Separate Paths
 9 The dead and the Dying
10 Victory


[img]image[/img]

[img]image[/img]

Terza ed ultima stagione ma ricca di interessanti novità per Spartacus: War of the Damned. Vedremo "la più grande ed epica delle stagioni mai viste prima" ha raccontato DeKnight, una serie dove alcuni eventi della storia saranno condensati per dar vita ad una stagione ricca di azione ma che avrà decisamente poco fondamento storico. Ma Spartacus sarà, ancor una volta, un condensato di sangue e armi, sensualità e sessualità, azione e reazione dove non mancheranno i morti.

[img]image[/img]

Sottotitoli impressi a video (HardSub)

Programma usato: AVIRecomp

General
Complete name : Spartacus.S03E01.Enemies.of.Rome.HDTV.XviD.Eng.Sub_Ita-[iDN_CreW].avi
Format : AVI
Format/Info : Audio Video Interleave
File size : 413 MiB
Duration : 50mn 46s
Overall bit rate : 1 137 Kbps
Writing application : VirtualDubMod 1.5.10.2 (build 2542/release)
Writing library : VirtualDubMod build 2542/release

Video
Format : MPEG-4 Visual
Format profile : Streaming Video@L1
Format settings, BVOP : Yes
Format settings, QPel : No
Format settings, GMC : No warppoints
Format settings, Matrix : Default
Muxing mode : Packed bitstream
Codec ID : XVID
Codec ID/Hint : XviD
Duration : 50mn 46s
Bit rate : 996 Kbps
Width : 640 pixels
Height : 360 pixels
Display aspect ratio : 16/9
Frame rate : 23.976 fps
Resolution : 24 bits
Colorimetry : 4:2:0
Scan type : Progressive
Bits/(Pixel*Frame) : 0.180
Stream size : 362 MiB (88%)
Writing library : XviD 64

Audio
Format : MPEG Audio
Format version : Version 1
Format profile : Layer 3
Codec ID : 55
Codec ID/Hint : MP3
Duration : 50mn 46s
Bit rate mode : Variable
Bit rate : 128 Kbps
Channel(s) : 2 channels
Sampling rate : 48.0 KHz
Resolution : 16 bits
Stream size : 46.5 MiB (11%)
Alignment : Aligned on interleaves
Interleave, duration : 24 ms (0.58 video frame)
Interleave, preload duration : 490 ms
Writing library : LAME3.98.4


[img]image[/img]

[img]image[/img]

[img]image[/img]

[img]image[/img]

[img]image[/img]

[img]image[/img]

iDN_CreW Leggimi.txt 294 B
Spartacus.S03E01.Enemies.of.Rome.HDTV.XviD.Eng.Sub_Ita-[iDN_CreW].avi 433.05 MB
Gathering some info...

Register and log in Isohunt and see no captcha anymore!

4000 symbols left
Hash D12DE7DA3EAC52CA4E0C5FAF6E700FAF6B23CA17

Related torrents for "Spartacus S03E01 Enemies of Rome HDTV XviD Eng Sub_Ita-[iDN_CreW]"

Torrent search:

season 03 english episode 01 hdtv