imdb
rating

8.6
Spartacus: Gods of the Arena

Spartacus: Gods of the Arena (2011)

Action, Drama, History

Full description

Spartacus - Gods Of The Arena [Complete] (2011) MP4 x264 AAC DVDrip [Pioneer]

Size 3.687 GB   21 seeders     Added 2013-01-29 18:01:20

Stream torrent
Starting‥ You need BitLord! Get it from BitLord.com
To download or stream you need BitLord. Visit them at BitLord.com
[IMG]image[/IMG]


[b]Before Spartacus struck down his first opponent in the arena, there were many gladiators who passed though the gates onto the sand.'Spartacus: Gods of the Arena' tells the story of the original Champion of the House of Batiatus: Gannicus in a more ruthless time before Spartacus' arrival where honor was just finding its way into the arena.

Starring: Lesley-Ann Brandt, Lucy Lawless, Jessica Grace Smith, Nick Tarabay, Raicho Vasilev, Marisa Ramirez
Directors: Jesse Warn, Rick Jacobson, Michael Hurst[/b] 

http://www.imdb.com/title/tt1758429/

http://www.youtube.com/watch?v=BoQGsjyFN5w


[IMG]image[/IMG]
[IMG]image[/IMG]
[IMG]image[/IMG]
[IMG]image[/IMG]
[IMG]image[/IMG]
[IMG]image[/IMG]


[b]General
Complete name: D:\Spartacus - Gods Of The Arena MP4 x264 AAC DVDrip 
Format: MPEG-4
Format profile: Base Media / Version 2
Codec ID: mp42
File size: 574 MiB
Duration: 54mn 46s
Overall bit rate mode: Variable
Overall bit rate: 1 464 Kbps
Encoded date: UTC 2013-01-26 07:44:52
Tagged date: UTC 2013-01-26 08:23:16
Writing application: HandBrake 0.9.8 2012071700

Video
ID: 1
Format: AVC
Format/Info: Advanced Video Codec
Format profile: High@L3.0
Format settings, CABAC: Yes
Format settings, ReFrames: 4 frames
Codec ID: avc1
Codec ID/Info: Advanced Video Coding
Duration: 54mn 46s
Bit rate mode: Variable
Bit rate: 1 300 Kbps
Width: 720 pixels
Height: 568 pixels
Display aspect ratio: 16:9
Frame rate mode: Variable
Frame rate: 25.000 fps
Minimum frame rate: 8.333 fps
Maximum frame rate: 25.000 fps
Color space : YUV
Chroma subsampling: 4:2:0
Bit depth: 8 bits
Scan type: Progressive
Bits/(Pixel*Frame): 0.127
Stream size: 509 MiB (89%)
Writing library: x264 core 120
Encoded date: UTC 2013-01-26 07:44:52
Tagged date: UTC 2013-01-26 08:23:16
Color primaries: BT.601 NTSC
Transfer characteristics: BT.709
Matrix coefficients: BT.601

Audio
ID: 2
Format: AAC
Format/Info: Advanced Audio Codec
Format profile: LC
Codec ID: 40
Duration: 54mn 46s
Bit rate mode: Variable
Bit rate: 160 Kbps
Maximum bit rate: 309 Kbps
Channel(s): 2 channels
Channel positions: Front: L R
Sampling rate: 48.0 KHz
Compression mode: Lossy
Delay relative to video: 160ms
Stream size: 62.6 MiB (11%)
Language: English
Encoded date: UTC 2013-01-26 07:44:52
Tagged date: UTC 2013-01-26 08:23:15[/b]
Spartacus - Gods Of The Arena E01 MP4 x264 AAC DVDrip [Pioneer].mp4 568.436 MB
Spartacus - Gods Of The Arena E02 MP4 x264 AAC DVDrip [Pioneer].mp4 583.039 MB
Spartacus - Gods Of The Arena E03 MP4 x264 AAC DVDrip [Pioneer].mp4 632.608 MB
Gathering some info...

Register and log in Isohunt and see no captcha anymore!

4000 symbols left
Hash 36B56E2B1BCFDCC8B2E51ABCC5442FE1EC366AB3

Related torrents for "Spartacus - Gods Of The Arena [Complete] (2011) MP4 x264 AAC DVDrip [Pioneer]"

Torrent search:

dvdrip x264 2011