George

George (1993)

Comedy

Full description

Diary Of The Dead - Le Cronache Dei Morti Viventi (2008) George A. Romero [XviD - Italian English - Sub Ita] MIRCrew [ ]

Size 1.558 GB   18 seeders     Added 2013-01-29 20:14:15

Stream torrent
Starting‥ You need BitLord! Get it from 1BitLord.com
To download or stream you need BitLord. Visit them at BitLord.com
Diary Of The Dead - Le Cronache Dei Morti Viventi (2008) George A. Romero [XviD - Italian English - Sub Ita] MIRCrew [TNT Village]



[color=red][IMG]image[/IMG]
*********************************************
[IMG]image[/IMG]
[IMG]image[/IMG]


[URL=http://www.imdb.it/title/tt0848557/][IMG]image[/IMG][/URL] 


[IMG]image[/IMG]

[IMG]image[/IMG]



Titolo originale 	Diary of the Dead
Lingua originale 	Inglese
Paese di produzione 	Stati Uniti d'America
Anno 	2007
Durata 	95 min

Le cronache dei morti viventi è un film horror indipendente del 2007, diretto e sceneggiato da George A. Romero.

Il film è stato distribuito negli USA il 15 febbraio 2008 e in Italia il 30 ottobre 2009 solo in isolati cinema a Roma, per qualche settimana. Infine è stato distribuito in DVD il 26 giugno 

2010 in tutta la penisola.

Costituisce il quinto capitolo della saga degli Zombie ideata da Romero nel 1968 con La notte dei morti viventi.

Rapporto 	1,85 : 1
Genere 	horror
Regia 	George A. Romero
Soggetto 	George A. Romero
Sceneggiatura 	George A. Romero
Produttore 	Paula Devonshire, Sam Englebardt, Peter Grunwald, Ara Katz, Art Spigel
Produttore esecutivo 	Steve Barnett, Dan Fireman, John Harrison
Casa di produzione 	Artfire Films, Romero-Grunwald Productions
Distribuzione (Italia) 	Moviemax
Fotografia 	Adam Swica
Montaggio 	Michael Doherty
Effetti speciali 	Mark Ahee, Gregory Nicotero
Musiche 	Norman Orenstein
Scenografia 	Rupert Lazarus
Costumi 	Alex Kavanagh
Trucco 	Chris Bridges, Kyle Glencross, Neil Morrill, Andy Schoneberg


[IMG]image[/IMG]

[IMG]image[/IMG]

[IMG]image[/IMG]

 Michelle Morgan: Debra
 Joshua Close: Jason
 Shawn Roberts: Tony
 Amy Ciupak Lalonde: Tracy
 Joe Dinicol: Eliot
 Scott Wentworth: Maxwell
 Philip Riccio: Ridley
 Chris Violette: Gordo
 Tatiana Maslany: Paduma

Doppiatori italiani

 Domitilla D'Amico: Debra
 Fabrizio Picconi: Jason
 Andrea Lavagnino: Tony
 Clorinda Venturiello: Tracy
 Alessio Puccio: Eliot
 Nino D'Agata: Maxwell
 Gabriele Lopez: Ridley

[IMG]image[/IMG]

[IMG]image[/IMG]

[IMG]image[/IMG]

Jason (Joshua Close) è uno studente di cinema del PIT, università di Pittsburgh che assieme ai suoi amici Tony (Shawn Roberts), Tracy (Amy Ciupak Lalonde), Eliot (Joe Dinicol), Ridley 

(Philip Riccio), Gordo (Chris Violette), Paduma (Tatiana Maslany) e al suo insegnante alcolizzato, Maxwell (Scott Wentworth), vuole realizzare un film horror indipendente da presentare alla 

mostra scolastica.
Mentre girano una scena in un bosco, in un momento di pausa dopo un ciak, accendono la radio e ascoltano attoniti notizie che parlano di scontri sanguinosi in tutto il Paese, atti di 

violenza improvvisi e disordini scoppiati senza un'apparente causa.
Due dei ragazzi, Ridley e la sua fidanzata Francine, decidono di tornare a casa di lui, mentre Jason, il cameraman, convince il resto del gruppo a tornare al dormitorio per cercare Debra 

(Michelle Morgan), la sua ragazza, e decide di continuare a riprendere ogni cosa per poter girare un documentario indipendente che racconti la verità così come è accaduta, visto che 

nessuno, né in televisione né sulla rete, sembra capire bene quello che sta succedendo................


Storyline:

While filming a horror movie of mummy in a forest, the students and their professor of the University of Pittsburgh hear on the TV the news that the dead are awaking and walking. Ridley and 

Francine decide to leave the group, while Jason heads to the dormitory of his girlfriend Debra Monahan. She does not succeed in contacting her family and they travel in Mary's van to the 

house of Debra's parents in Scranton, Pennsylvania. While driving her van, Mary sees a car accident and runs over a highway patrolman and three other zombies trying to escape from them. 

Later the religious Mary is depressed, questioning whether the victims where really dead, and tries to commit suicide, shooting herself with a pistol. Her friends take her to a hospital 

where they realize that the dead are indeed awaking and walking and they need to fight to survive while traveling to Debra's parents house. .....

[IMG]image[/IMG]


[IMG]image[/IMG]


[IMG]image[/IMG]

[IMG]image[/IMG]

General
Complete name : Diary Of The Dead - Le Cronache Dei Morti Viventi (2008).Ita.Eng.Sub.Ita.MIRCrew.avi
Format : AVI
Format/Info : Audio Video Interleave
File size : 1.45 GiB
Duration : 1h 31mn
Overall bit rate : 2 265 Kbps
Writing application : VirtualDubMod 1.5.10.2 (build 2540/release)
Writing library : VirtualDubMod build 2540/release

Video
ID : 0
Format : MPEG-4 Visual
Format profile : Advanced Simple@L5
Format settings, BVOP : Yes
Format settings, QPel : No
Format settings, GMC : No warppoints
Format settings, Matrix : Default (MPEG)
Codec ID : XVID
Codec ID/Hint : XviD
Duration : 1h 31mn
Bit rate : 1 676 Kbps
Width : 624 pixels
Height : 336 pixels
Display aspect ratio : 1.857
Frame rate : 25.000 fps
Color space : YUV
Chroma subsampling : 4:2:0
Bit depth : 8 bits
Scan type : Progressive
Bits/(Pixel*Frame) : 0.320
Stream size : 1.07 GiB (74%)
Writing library : XviD 1.2.1 (UTC 2008-12-04)

Audio #1
ID : 1
Format : AC-3
Format/Info : Audio Coding 3
Mode extension : CM (complete main)
Codec ID : 2000
Duration : 1h 31mn
Bit rate mode : Constant
Bit rate : 448 Kbps
Channel(s) : 6 channels
Channel positions : Front: L C R, Side: L R, LFE
Sampling rate : 48.0 KHz
Bit depth : 16 bits
Stream size : 294 MiB (20%)
Alignment : Split accross interleaves
Interleave, duration : 40 ms (1.00 video frame)
Interleave, preload duration : 500 ms

Audio #2
ID : 2
Format : MPEG Audio
Format version : Version 1
Format profile : Layer 3
Codec ID : 55
Codec ID/Hint : MP3
Duration : 1h 30mn
Bit rate mode : Constant
Bit rate : 128 Kbps
Channel(s) : 2 channels
Sampling rate : 48.0 KHz
Stream size : 83.3 MiB (6%)
Alignment : Aligned on interleaves
Interleave, duration : 40 ms (1.01 video frame)
Interleave, preload duration : 504 ms
Writing library : LAME3.99r
Encoding settings : -m s -V 4 -q 3 -lowpass 17 -b 128

[/color]
Diary Of The Dead - Le Cronache Dei Morti Viventi (2008).Ita.Eng.Sub.Ita.MIRCrew.avi 1.558 GB
Diary Of The Dead - Le Cronache Dei Morti Viventi (2008).Ita.Eng.Sub.Ita.MIRCrew.srt 100.308 KB
Gathering some info...

Register and log in Isohunt and see no captcha anymore!

4000 symbols left
Hash B36388BD2FD1285E1B427EBF538B62EBDE93A3FC

Related torrents for "Diary Of The Dead - Le Cronache Dei Morti Viventi (2008) George A. Romero [XviD - Italian English - Sub Ita] MIRCrew [ ]"

Torrent search:

italian english 2008