Thy Womb 2012 CAMRip EP

Size 1.246 GB   15 seeders     Added 2013-01-29 23:54:14

Stream torrent
Starting‥ You need BitLord! Get it from BitLord.com
To download or stream you need BitLord. Visit them at BitLord.com
 image


Thy Womb 2012 CAMRip EP


info:


Imdb                             : http://www.imdb.com/title/tt2395459/
Genres                           : Drama
Director                         : Brillante Mendoza
Writer                           : Henry Burgos (screenplay)
Audio Language                   : Filipino | Tagalog
Country                          : Philippines


General
Complete name                            : Thy Womb 2012 CAMRip EP.avi
Format                                   : AVI
Format/Info                              : Audio Video Interleave
File size                                : 1.16 GiB
Duration                                 : 1h 30mn
Overall bit rate                         : 1 832 Kbps
Writing application                      : VirtualDubMod

Video
ID                                       : 0
Format                                   : AVC
Format/Info                              : Advanced Video Codec
Format profile                           : High@L3.1
Format settings, CABAC                   : Yes
Format settings, ReFrames                : 3 frames
Codec ID                                 : H264
Duration                                 : 1h 30mn
Bit rate                                 : 1 631 Kbps
Width                                    : 1 280 pixels
Height                                   : 720 pixels
Display aspect ratio                     : 16:9
Frame rate                               : 25.000 fps
Color space                              : YUV
Chroma subsampling                       : 4:2:0
Bit depth                                : 8 bits
Scan type                                : Progressive
Bits/(Pixel*Frame)                       : 0.071
Stream size                              : 1.03 GiB (89%)
Writing library                          : x264 core 119 r2106kMod 07efeb4
Encoding settings                        : cabac=1 / ref=3 / deblock=1:0:0

Audio
ID                                       : 1
Format                                   : MPEG Audio
Format version                           : Version 1
Format profile                           : Layer 3
Codec ID                                 : 55
Codec ID/Hint                            : MP3
Duration                                 : 1h 30mn
Bit rate mode                            : Constant
Bit rate                                 : 192 Kbps
Channel(s)                               : 2 channels
Sampling rate                            : 44.1 KHz
Compression mode                         : Lossy
Stream size                              : 124 MiB (10%)
Alignment                                : Split accross interleaves
Interleave, duration                     : 40 ms (1.00 video frame)
Interleave, preload duration             : 500 ms
Writing library                          : LAMELAME_MAJOR_VERSI





cast:

Nora Aunor 	... 	Shaleha

Bembol Roco 	... 	Bangas-An

Lovi Poe 	... 	Mersila

Mercedes Cabral 	... 	Ayesha 




plot:

Shaleha (Aunor) is a Badjao midwife in Tawi-Tawi. ?Shaleha Sarail hails from a seaborne village in Sitangkai, Tawi-Tawi. 

The province is a seaweed-producing spot in the southernmost part of the Philippines all the way down the Malaysian 

and Indonesian archipelagos. Aging and still smarting from three miscarriages in the past, Shaleha agonizes over her 

failure to bear a child. ?Though an adoptive parent to her nephew, she still feels that her husband Bangas-An 

(Bembol Roco) desires to be a father. She struggles to cope with the irony of her own infertility amidst the 

deprivation of her community. ? To fulfill her husbandΓÇÖs only wish and to be blessed by Allah--in her belief that 

having a child is a tangible proof of divine grace--Shaleha resolves to find a new partner for her husband. 

Night and day, she and her husband sail away from their floating village and to nearby island communities 

in search of a fertile woman. As if by providence, Shaleha finds the girl through friends' recommendations. 

But on the eve of her husbandΓÇÖs second marriage to Mersila (Lovi Poe), jealousy gnaws and consumes Shaleha. 

A saga of island life stuck between the devil of passion and the deep blue sea of tradition. 



ScreenShots:

 
image		
/Thy Womb 2012 CAMRip elite-pirates.com.avi 1.246 GB
/Torrent downloaded from AhaShare.com.txt 59 B
/torrent downloaded from elite-pirates.com.txt 664 B
Gathering some info...

Register and log in Isohunt and see no captcha anymore!

4000 symbols left
Hash D0C2A0ED501B417221208331AAC70B1094BF0EF3