imdb
rating

3.2
Dzhentlmeny, Udachi!

Dzhentlmeny, Udachi! (2012)

Comedy

Full description
quality   web-rip fullhd bd hd x264 dvdrip

Djentelmeny udachi 2012 O WEBRip avi

Size 1.47 GB   0 seeders     Added 2013-01-30 01:35:03

Stream torrent
Starting‥ You need BitLord! Get it from BitLord.com
To download or stream you need BitLord. Visit them at BitLord.com
Directors: Aleksandr Baranov, Dmitriy Kiselev 
Writers: Vladimir Nagorny, Slava Se 
Stars: Dato Bakhtadze, Sergey Bezrukov, Dima Bilan 

MediaInfo 0.7.61:
General
Complete name                            : D:111111Djentelmeny.udachi.2012.O.WEBRip.avi
Format                                   : AVI
Format/Info                              : Audio Video Interleave
File size                                : 1.37 GiB
Duration                                 : 1h 39mn
Overall bit rate                         : 1 967 Kbps
Writing library                          : VirtualDub build 29808/release

Video
ID                                       : 0
Format                                   : MPEG-4 Visual
Format profile                           : Advanced Simple@L5
Format settings, BVOP                    : 2
Format settings, QPel                    : No
Format settings, GMC                     : No warppoints
Format settings, Matrix                  : Default (MPEG)
Muxing mode                              : Packed bitstream
Codec ID                                 : XVID
Codec ID/Hint                            : XviD
Duration                                 : 1h 39mn
Bit rate                                 : 1 829 Kbps
Width                                    : 720 pixels
Height                                   : 304 pixels
Display aspect ratio                     : 2.35:1
Frame rate                               : 25.000 fps
Color space                              : YUV
Chroma subsampling                       : 4:2:0
Bit depth                                : 8 bits
Scan type                                : Progressive
Compression mode                         : Lossy
Bits/(Pixel*Frame)                       : 0.334
Stream size                              : 1.27 GiB (93%)
Writing library                          : XviD 64

Audio
ID                                       : 1
Format                                   : MPEG Audio
Format version                           : Version 1
Format profile                           : Layer 3
Mode                                     : Joint stereo
Mode extension                           : MS Stereo
Codec ID                                 : 55
Codec ID/Hint                            : MP3
Duration                                 : 1h 39mn
Bit rate mode                            : Constant
Bit rate                                 : 128 Kbps
Channel(s)                               : 2 channels
Sampling rate                            : 48.0 KHz
Compression mode                         : Lossy
Stream size                              : 91.3 MiB (7%)
Alignment                                : Split accross interleaves
Interleave, duration                     : 40 ms (1.00 video frame)
Interleave, preload duration             : 500 ms
Writing library                          : LAME3.98.2

		
Djentelmeny.udachi.2012.O.WEBRip.avi 1.47 GB
Gathering some info...

Register and log in Isohunt and see no captcha anymore!

4000 symbols left
Hash EE3A3A4E609F19C9F1CA34F130E1626EAD279E3F

Related torrents for "Djentelmeny udachi 2012 O WEBRip avi"

Torrent search:

2012 web-rip