imdb
rating

7.3
Flight

Flight (2012)

Drama

Full description

Flight 2012 BRRip English [EngSub][Accipiter] Verified

Size 724.622 MB   10 seeders     Added 2013-01-30 03:54:29

Stream torrent
Starting‥ You need BitLord! Get it from BitLord.com
10
To download or stream you need BitLord. Visit them at BitLord.com
[img]image[/img]

[b]Cover:[/b]

[img]image[/img]

[b]Release info:[/b]

[code]General
Format : Matroska
Format version : Version 4 / Version 2
File size : 691 MiB
Duration : 2h 18mn
Overall bit rate : 697 Kbps

Video
ID : 1
Format : MPEG-4 Visual
Format profile : Advanced Simple@L5
Format settings, BVOP : Yes
Format settings, QPel : No
Format settings, GMC : No warppoints
Format settings, Matrix : Default (H.263)
Codec ID : V_MS/VFW/FOURCC / XVID
Codec ID/Hint : XviD
Duration : 2h 18mn
Bit rate : 571 Kbps
Width : 608 pixels
Height : 256 pixels
Display aspect ratio : 2.40:1
Frame rate mode : Constant
Frame rate : 23.976 fps
Color space : YUV
Chroma subsampling : 4:2:0
Bit depth : 8 bits
Scan type : Progressive
Compression mode : Lossy
Bits/(Pixel*Frame) : 0.153
Stream size : 566 MiB (82%)
Language : English
Default : Yes
Forced : No

Audio
ID : 2
Format : MPEG Audio
Format version : Version 1
Format profile : Layer 3
Mode : Joint stereo
Mode extension : MS Stereo
Codec ID : A_MPEG/L3
Codec ID/Hint : MP3
Duration : 2h 18mn
Bit rate mode : Constant
Bit rate : 112 Kbps
Channel(s) : 2 channels
Sampling rate : 48.0 KHz
Compression mode : Lossy
Stream size : 111 MiB (16%)
Language : English
Default : Yes
Forced : No

Text
ID : 3
Format : UTF-8
Codec ID : S_TEXT/UTF8
Codec ID/Info : UTF-8 Plain Text
Language : English
Default : Yes
Forced : No



Source:
credit to original movie ripper SPARKS (Thanks)[/code]

[b]IMDB Info:[/b]

[code]An airline pilot saves a flight from crashing, but an investigation into the malfunctions reveals something troubling.

Director: Robert Zemeckis
Writer: John Gatins
Stars: Denzel Washington, Nadine Velazquez, Don Cheadle 

Genres: Drama[/code]

http://www.imdb.com/title/tt1907668/

[b]Screen Shot:[/b]

[img]image[/img]
[img]image[/img]
[img]image[/img]
[img]image[/img]
Flight 2012 BRRip English [EngSub][Accipiter].mkv 724.619 MB
Torrent Downloaded From Digtorrent.org.txt 346 B
Torrent Downloaded From DivXHunt.tk.nfo 2.281 KB
Gathering some info...

Register and log in Isohunt and see no captcha anymore!

4000 symbols left
Hash 2D4F520F9FF994F7CCED12E4A275CA28105F11B9

Related torrents for "Flight 2012 BRRip English [EngSub][Accipiter]"

Torrent search:

english 2012 bd