Slava's Snow Show (2011) [BDDRip.x264.DTS-SBS][Pantomima]

Size 2.852 GB   1 seeders     Added 2013-01-30 13:40:37

Stream torrent
Starting‥ You need BitLord! Get it from BitLord.com
10
To download or stream you need BitLord. Visit them at BitLord.com
[center][img]image[/img]
[i]
[b]Film w wersji 3D SBS.[/b][/i]

Produkcja: Francja
Data: 2011
Reżyseria: Arnaud Bacam
Scenariusz: Natascha Taillefer
Zdjęcia: Madjit Hakimi
Gatynek: familijny,pantomima,dramat
Czas: 01:32:34

Opis Filmu:

Slava's Snowshow is a stage spectacle created and staged by Russian performance 
artist Slava Polunin. The show won the Drama Desk Award for Unique Theatrical 
Experience and was nominated for the Tony Award for Best Special Theatrical Event.

Snowshow Slava jest spektakl sceniczny, stworzony i w inscenizacji rosyjskiego
artysty Slavy Polunina.Pokaz zdobył nagrodę Drama Desk Award dla Unique Theatrical 
Experience i został nominowany do Tony Award jako najlepszego wydarzenie teatralne.

[img]image[/img]
[img]image[/img]
[img]image[/img]

Obsada:

Slava Polunin
Arthem Zhimo
Robert Saralp

Dane Techniczne:

Slava's Snow Show-alE13.mkv
Format : Matroska
Format version : Version 2
File size : 2.66 GiB
Duration : 1h 2mn
Overall bit rate : 6 074 Kbps
Movie name : Slava's Snow Show-alE13
Encoded date : UTC 2013-01-29 20:34:00
Writing application : mkvmerge v5.8.0 
Writing library : libebml v1.2.3 + libmatroska v1.3.0

Video
ID : 1
Format : AVC
Format/Info : Advanced Video Codec
Format profile : Main@L4.0
Format settings, CABAC : Yes
Format settings, ReFrames : 2 frames
Muxing mode : Header stripping
Codec ID : V_MPEG4/ISO/AVC
Duration : 1h 2mn
Bit rate : 4 526 Kbps
Width : 1 920 pixels
Height : 1 080 pixels
Display aspect ratio : 16:9
Frame rate mode : Constant
Frame rate : 24.000 fps
Color space : YUV
Chroma subsampling : 4:2:0
Bit depth : 8 bits
Scan type : Progressive
Bits/(Pixel*Frame) : 0.091
Stream size : 1.94 GiB (73%)
Writing library : x264 core 112 r1834 

Audio
ID : 2
Format : DTS
Format/Info : Digital Theater Systems
Mode : 16
Format settings, Endianness : Big
Muxing mode : Header stripping
Codec ID : A_DTS
Duration : 1h 2mn
Bit rate mode : Constant
Bit rate : 1 509 Kbps
Channel(s) : 6 channels
Channel positions : Front: L C R, Side: L R, LFE
Sampling rate : 48.0 KHz
Bit depth : 16 bits
Compression mode : Lossy
Stream size : 675 MiB (25%)[/center]
1.png 589.617 KB
2.jpg 144.757 KB
Slava's Snow Show-alE13.mkv 2.851 GB
Gathering some info...

Register and log in Isohunt and see no captcha anymore!

4000 symbols left
Hash B27A9B4EC12EB6E8A1495072B077FB6E9AF690B0