imdb
rating

7.7
Despicable Me

Despicable Me (2010)

Animation, Family

Full description

Jak Ukraść Księżyc - Despicable Me (2010) [BDDRip.x264.DTS.Half-SBS] [Napisy PL][Eng]

Size 3.435 GB   7 seeders     Added 2013-01-30 22:00:45

Stream torrent
Starting‥ You need BitLord! Get it from 1BitLord.com
To download or stream you need BitLord. Visit them at BitLord.com
[center][img]image[/img]

[i][b]Film w wersji Half - SBS[/b][/i]

gatunek: Animacja, Familijny, Komedia, 
produkcja: USA, 
premiera: 20 sierpnia 2010 (Polska) 2010-08-20 
reżyseria: Chris Renaud, Pierre Coffin, 
scenariusz: Ken Daurio, Cinco Paul, 
muzyka:Heitor Pereira , Pharrell Williams

Opis Filmu:

When a criminal mastermind uses a trio of orphan girls as pawns for a grand scheme, he 
finds their love is profoundly changing him for the better. 

Wspaniała animacja w 3D twórców "Epoki lodowcowej". Zachwyci humorem i piękną animacją. 
W pewnym miejscu na Ziemi poznajemy Gru (głos Steve'a Carella), który planuje 
najzuchwalszą kradzież na Ziemi - zamierza ukraść księżyc! Gru jest wyposażony w arsenał 
miotaczy laserów służących do obezwładniania, zamrażania, posiada wszelkie maszyny do 
walki w powietrzu i na ziemi - zmiecie wszystko co stanie mu na drodze. Aż do momentu, 
gdy na jego drodze pojawia się trzy, małe sierotki: Margo, Edith i Agnes. To właśnie one 
zobaczą w nim coś czego nikt inny nie mógł zobaczyć: potencjalnego kandydata na Tatę.

[img]image[/img]
[img]image[/img]
[img]image[/img]

Obsada:

Steve Carell ... Gru (voice) 
Jason Segel ... Vector (voice) 
Russell Brand... Dr. Nefario (voice) 
Julie Andrews... Gru's Mom (voice) 

Dane Techniczne:

Despicable Me (2010)-alE13.mkv
Format : Matroska
File size : 3.19 GiB
Duration : 1h 34mn
Overall bit rate : 4 824 Kbps
Movie name : Despicable Me (2010)-alE13
Encoded date : UTC 2013-01-29 22:09:39
Writing application : mkvmerge v5.8.0 
Writing library : libebml v1.2.3 + libmatroska v1.3.0

Video
ID : 1
Format : AVC
Format/Info : Advanced Video Codec
Format profile : Main@L4.0
Format settings, CABAC : Yes
Format settings, ReFrames : 2 frames
Muxing mode : Container profile=Unknown@4.0
Codec ID : V_MPEG4/ISO/AVC
Duration : 1h 34mn
Bit rate : 3 369 Kbps
Width : 1 920 pixels
Height : 1 040 pixels
Display aspect ratio : 16:9
Frame rate mode : Variable
Frame rate : 25.000 fps
Color space : YUV
Chroma subsampling : 4:2:0
Bit depth : 8 bits
Scan type : Progressive
Bits/(Pixel*Frame) : 0.067
Stream size : 2.13 GiB (67%)
Writing library : x264 core 112 r1834 a51816a

Audio
ID : 2
Format : DTS
Format/Info : Digital Theater Systems
Muxing mode : Header stripping
Codec ID : A_DTS
Duration : 1h 34mn
Bit rate mode : Constant
Bit rate : 1 510 Kbps
Channel(s) : 6 channels
Channel positions : Front: L C R, Side: L R, LFE
Sampling rate : 48.0 KHz
Bit depth : 24 bits
Stream size : 1 023 MiB (31%)
Language : English

Text #1
ID : 3
Format : VobSub
Codec ID : S_VOBSUB
Codec ID/Info : The same subtitle format used on DVDs
Language : Polish

Text #2
ID : 4
Format : VobSub
Codec ID : S_VOBSUB
Codec ID/Info : The same subtitle format used on DVDs
Language : English

Text #3
ID : 5
Format : VobSub
Codec ID : S_VOBSUB
Codec ID/Info : The same subtitle format used on DVDs
Language : English

Menu
00:00:00.000 : :00:00:00.000
00:03:22.411 : :00:03:22.411
00:06:31.891 : :00:06:31.891
00:12:05.099 : :00:12:05.099
00:13:50.496 : :00:13:50.496
00:18:38.826 : :00:18:38.826
00:23:06.844 : :00:23:06.844
00:25:56.221 : :00:25:56.221
00:30:40.839 : :00:30:40.839
00:34:48.753 : :00:34:48.753
00:39:43.047 : :00:39:43.047
00:43:38.366 : :00:43:38.366
00:48:19.188 : :00:48:19.188
00:52:52.503 : :00:52:52.503
00:56:46.111 : :00:56:46.111
01:02:08.016 : :01:02:08.016
01:09:23.868 : :01:09:23.868
01:16:25.456 : :01:16:25.456
01:22:41.582 : :01:22:41.582
01:27:35.375 : :01:27:35.375[/center]
Sub/Jak Ukraść Księżyc.sub 6.156 MB
Sub/Jak Ukraść Księżyc.srt 52.793 KB
Sub/despicable.me.3d.swe-culthd.idx 39.407 KB
Gathering some info...

Register and log in Isohunt and see no captcha anymore!

4000 symbols left
Hash 2393282A5C0902FCEE070D73BBDE9750B266C517

Related torrents for "Jak Ukraść Księżyc - Despicable Me (2010) [BDDRip.x264.DTS.Half-SBS] [Napisy PL][Eng]"

Torrent search:

english x264 2010