imdb
rating

6.8
Gangster Squad

Gangster Squad (2013)

Action, Crime, Drama, Thriller

Full description
quality   bd dvdrip telesync dvdr x264 hd cam

Gangster Squad 2013 R6 HDRip.XviD.Feel-Free

Size 987.934 MB   61 seeders     Added 2013-01-31 01:20:29

Stream torrent
Starting‥ You need BitLord! Get it from BitLord.com
7.5
To download or stream you need BitLord. Visit them at BitLord.com
Genre:Action | Crime | Drama
Language:English
IMDb:http://www.imdb.com/title/tt1321870/
Source:720p HDRip x264 AAC-TengXun-SmY Thanks
Encoder:Tony

Format : AVI
Format/Info : Audio Video Interleave
File size : 941 MiB
Duration : 1h 52mn
Overall bit rate : 1 167 Kbps

Video
ID : 0
Format : MPEG-4 Visual
Format profile : Advanced Simple@L5
Format settings, BVOP : 1
Format settings, QPel : No
Format settings, GMC : No warppoints
Format settings, Matrix : Default (H.263)
Codec ID : XVID
Codec ID/Hint : XviD
Duration : 1h 52mn
Bit rate : 1 030 Kbps
Width : 640 pixels
Height : 272 pixels
Display aspect ratio : 2.35:1
Frame rate : 25.000 fps
Color space : YUV
Chroma subsampling : 4:2:0
Bit depth : 8 bits
Scan type : Progressive
Compression mode : Lossy
Bits/(Pixel*Frame) : 0.237
Stream size : 830 MiB (88%)
Writing library : XviD 1.2.1 (UTC 2008-12-04)

Audio
ID : 1
Format : AC-3
Format/Info : Audio Coding 3
Mode extension : CM (complete main)
Codec ID : 2000
Duration : 1h 52mn
Bit rate mode : Constant
Bit rate : 128 Kbps
Channel(s) : 2 channels
Channel positions : Front: L R
Sampling rate : 48.0 KHz
Bit depth : 16 bits
Compression mode : Lossy
Stream size : 103 MiB (11%)
Alignment : Aligned on interleaves
Interleave, duration : 40 ms (1.00 video frame)
Interleave, preload duration : 512 ms


Plot:
Los Angeles, 1949: A secret crew of police officers led by two determined sergeants work together in an effort to take down the ruthless mob king Mickey Cohen who runs the city
 
image
 
image
 
image
 
image

Greets:
CRYS,INSPiRAL,IMAGINE,LKRG,ADTRG,FXG,3Li,FLAWL3SS,CrEwSaDe,TA,iLLUSiON,EMBER,HOPE,GooN,BBnRG,NOGRP,ETRG,BHRG,iLLUMiNATi,MiSTERE.ViSiON,DTRG SAFCuk009,LU,TheFalcon007,MYSTiC,PrisM,Noir,WBZ,LAP,Rx,Kingdom,SAFCuk009+Fabreezy,HDLiTE,TWiZTED,ETRG.ELEKTRI4KA,MAGNAT,CM8
And to all the other p2p grps past and present


		
Gangster Squad 2013 R6 HDRip.XviD.Feel-Free.avi 986.853 MB
Gangster Squad 2013 R6 HDRip.XviD.Feel-Free.nfo 3.326 KB
gangstersquadver2xlg.jpg 93.803 KB
Gathering some info...

Register and log in Isohunt and see no captcha anymore!

4000 symbols left
Hash 4372C1340CAB0B0F3933598F7CA942958CF3966C

Related torrents for "Gangster Squad 2013 R6 HDRip.XviD.Feel-Free"

Torrent search:

hd dvd 2013