Анна Каренина (2005)

Анна Каренина (2005) (2005)

Drama

Full description

king kong 2005 Blu- ray rip Spanish Latino only 480p

Size 1.341 GB   7 seeders     Added 2013-01-31 01:54:04

Stream torrent
Starting‥ You need BitLord! Get it from 1BitLord.com
To download or stream you need BitLord. Visit them at BitLord.com
Format profile                      : Base Media
Codec ID                            : isom
File size                           : 1.25 GiB
Duration                            : 3h 7mn
Overall bit rate                    : 954 Kbps
Encoded date                        : UTC 2013-01-27 20:10:07
Tagged date                         : UTC 2013-01-27 20:10:07

Video
ID                                  : 1
Format                              : AVC
Format/Info                         : Advanced Video Codec
Format profile                      : High@L3.1
Format settings, CABAC              : Yes
Format settings, ReFrames           : 8 frames
Codec ID                            : avc1
Codec ID/Info                       : Advanced Video Coding
Duration                            : 3h 7mn
Bit rate                            : 824 Kbps
Maximum bit rate                    : 5 583 Kbps
Width                               : 720 pixels
Height                              : 408 pixels
Display aspect ratio                : 16:9
Frame rate mode                     : Constant
Frame rate                          : 23.976 fps
Color space                         : YUV
Chroma subsampling                  : 4:2:0
Bit depth                           : 8 bits
Scan type                           : Progressive
Bits/(Pixel*Frame)                  : 0.117
Stream size                         : 1.08 GiB (86%)
Writing library                     : x264 core 125 r2208 d9d2288
Encoding settings                   : cabac=1 / ref=8 / deblock=1:-1:-1 / analyse=0x3:0x133 / me=umh / subme=9 / psy=1 / psy_rd=1.00:0.10 / mixed_ref=1 / me_range=16 / chroma_me=1 / trellis=2 / 8x8dct=1 / cqm=0 / deadzone=21,11 / fast_pskip=1 / chroma_qp_offset=-3 / threads=3 / lookahead_threads=1 / sliced_threads=0 / nr=0 / decimate=1 / interlaced=0 / bluray_compat=0 / constrained_intra=0 / bframes=3 / b_pyramid=2 / b_adapt=2 / b_bias=0 / direct=3 / weightb=1 / open_gop=0 / weightp=2 / keyint=250 / keyint_min=23 / scenecut=40 / intra_refresh=0 / rc_lookahead=60 / rc=crf / mbtree=1 / crf=22.0 / qcomp=0.60 / qpmin=0 / qpmax=69 / qpstep=4 / ip_ratio=1.40 / aq=1:1.00
Encoded date                        : UTC 2013-01-27 20:10:07
Tagged date                         : UTC 2013-01-27 20:12:24

Audio
ID                                  : 2
Format                              : AC-3
Format/Info                         : Audio Coding 3
Mode extension                      : CM (complete main)
Format settings, Endianness         : Big
Codec ID                            : ac-3
Duration                            : 3h 7mn
Bit rate mode                       : Constant
Bit rate                            : 128 Kbps
Channel(s)                          : 2 channels
Channel positions                   : Front: L R
Sampling rate                       : 48.0 KHz
Bit depth                           : 16 bits
Compression mode                    : Lossy
Delay relative to video             : 83ms
Stream size                         : 172 MiB (13%)
Encoded date                        : UTC 2013-01-27 20:11:46
Tagged date                         : UTC 2013-01-27 20:12:24
		
king kong.mp4 1.341 GB
Gathering some info...

Register and log in Isohunt and see no captcha anymore!

4000 symbols left
Hash 0DFF980566984432F82A7C77873D13B98D9B5B50

Related torrents for "king kong 2005 Blu- ray rip Spanish Latino only 480p"

Torrent search:

spanish 2005