imdb
rating

6.3
The Boy Who Cried Werewolf

The Boy Who Cried Werewolf (2010)

Horror, Family

Full description
quality   hdtv hd bd

The Boy Who Cried Werewolf (2010) BRRIP 720P

Size 2.734 GB   4 seeders     Added 2013-01-31 10:59:35

Stream torrent
Starting‥ You need BitLord! Get it from BitLord.com
To download or stream you need BitLord. Visit them at BitLord.com
Format                                   : MPEG-4
Format profile                           : Base Media
Codec ID                                 : isom
File size                                : 2.54 GiB
Duration                                 : 1h 26mn
Overall bit rate mode                    : Variable
Overall bit rate                         : 4 209 Kbps
Movie name                               : The Boy Who Cried Werewolf (2010)
Performer                                : Eric Bross
Genre                                    : Kids & Family
Recorded date                            : UTC 2010-10-24 07:00:00
Tagged date                              : UTC 2013-01-26 11:20:37
Cover                                    : Yes
desc                                     : Jordan, a nerdy girl with two left 

Video
ID                                       : 1
Format                                   : AVC
Format/Info                              : Advanced Video Codec
Format profile                           : Baseline@L3.0
Format settings, CABAC                   : No
Format settings, ReFrames                : 3 frames
Codec ID                                 : avc1
Codec ID/Info                            : Advanced Video Coding
Duration                                 : 1h 26mn
Bit rate                                 : 4 077 Kbps
Width                                    : 1 280 pixels
Height                                   : 720 pixels
Display aspect ratio                     : 16:9
Frame rate mode                          : Constant
Frame rate                               : 23.976 fps
Color space                              : YUV
Chroma subsampling                       : 4:2:0
Bit depth                                : 8 bits
Scan type                                : Progressive
Bits/(Pixel*Frame)                       : 0.185
Stream size                              : 2.46 GiB (97%)
Writing library                          : x264 core 102
Encoding settings                        : cabac=0 / ref=3 / deblock=1:0:0 / ip_ratio=1.41 / aq=1:1.00
Audio
ID                                       : 2
Format                                   : AAC
Format/Info                              : Advanced Audio Codec
Format profile                           : LC
Codec ID                                 : 40
Duration                                 : 1h 26mn
Bit rate mode                            : Variable
Bit rate                                 : 128 Kbps
Maximum bit rate                         : 201 Kbps
Channel(s)                               : 2 channels
Channel positions                        : Front: L R
Sampling rate                            : 48.0 KHz
Compression mode                         : Lossy
Stream size                              : 79.1 MiB (3%)
Language                                 : English

Text
ID                                       : 3
Format                                   : Apple text
Codec ID                                 : text
Duration                                 : 1h 26mn
Bit rate mode                            : Variable
Bit rate                                 : 0 bps
Stream size                              : 248 Bytes (0%)
Encoded date                             : UTC 2013-01-26 11:20:37
Tagged date                              : UTC 2013-01-26 11:20:37


Storyline

A Californian family inherits a castle in Romania. This is especially exciting to the son, who is obsessed with monsters. And he is not disappointed
The Boy Who Cried Werewolf (2010) (HD).mp4 2.728 GB
The Boy Who Cried Werewolf CD.jpg 1.363 MB
The Boy Who Cried Werewolf Front Cover.jpg 4.223 MB
Gathering some info...

Register and log in Isohunt and see no captcha anymore!

4000 symbols left
Hash 5DAA5622D71C70F32A1318A2C2E3FA729B0C9195

Related torrents for "The Boy Who Cried Werewolf (2010) BRRIP 720P"

Torrent search:

hd 2010 bd