Brunet wieczorowa pora 1976-alE13

Size 4.737 GB   0 seeders     Added 2013-01-31 18:42:08

Stream torrent
Starting‥ You need BitLord! Get it from 1BitLord.com
To download or stream you need BitLord. Visit them at BitLord.com
[center][img]image[/img]

gatunek: Komedia kryminalna, 
produkcja: Polska, 
premiera: 18 października 1976 (Polska) (świat) 1976-10-18 
reżyseria: Stanisław Bareja, 
scenariusz: Stanisław Bareja, Stanisław Tym, 
muzyka:Waldemar Kazaneckizdjęcia:Wiesław Zdort
Czas:

Opis Filmu:

Modest editor, has shipped his wife and kids for the weekend, and is trying to 
relax in his house at the outskirts of Warsaw. His quiet evening is only disturbed 
by the accidental forecast made by a Gypsy woman, that at evening time he will murder 
a mysterious brunet. He is trying to escape the destiny, but to no avail...

Cyganka przepowiada Michałowi Romanowi niezwykłe przeżycia, jednak on nie bierze 
poważnie tych proroctw. Gdy jego rodzina wyjeżdża na weekend, Michał zabiera się do 
zaległej pracy. Wtedy zaczynają się spełniać proroctwa Cyganki - Michał znajduje zaginiony
zegarek, a w totolotku wylosowane zostają przepowiedziane liczby. Bohater zaczyna 
oczekiwać najgroźniejszej części przepowiedni - zapowiada ona zabicie bruneta, który 
zjawi się w jego mieszkaniu wieczorową porą...

[img]image[/img]
[img]image[/img]
[img]image[/img]

Obsada:

Krzysztof Kowalewski Michał Roman
Wojciech Pokora Kowalski, sąsiad Romanów
Ryszard Pietruski Dzidek Krępak z Ciechocinka 
Bożena Dykiel Anna Roman, żona Michała

Dane Techniczne:

Brunet wieczorowa pora (1976)-alE13.mkv
Format : Matroska
File size : 4.39 GiB
Duration : 1h 30mn
Overall bit rate : 6 962 Kbps
Movie name : Brunet wieczorowa pora (1976)-alE13
Encoded date : UTC 2013-01-31 02:09:01
Writing application : mkvmerge v5.8.0 
Writing library : libebml v1.2.3 + libmatroska v1.3.0

Video
ID : 1
Format : AVC
Format/Info : Advanced Video Codec
Format profile : High@L4.1
Format settings, CABAC : Yes
Format settings, ReFrames : 9 frames
Muxing mode : Container profile=Unknown@4.1
Codec ID : V_MPEG4/ISO/AVC
Duration : 1h 30mn
Bit rate : 6 500 Kbps
Width : 1 280 pixels
Height : 720 pixels
Display aspect ratio : 16:9
Frame rate : 25.000 fps
Color space : YUV
Chroma subsampling : 4:2:0
Bit depth : 8 bits
Scan type : Progressive
Bits/(Pixel*Frame) : 0.282
Stream size : 4.02 GiB (92%)
Writing library : x264 core 129 r2230 1cffe9f
Language : Polish

Audio
ID : 2
Format : AC-3
Format/Info : Audio Coding 3
Mode extension : CM (complete main)
Muxing mode : Header stripping
Codec ID : A_AC3
Duration : 1h 30mn
Bit rate mode : Constant
Bit rate : 448 Kbps
Channel(s) : 2 channels
Channel positions : Front: L R
Sampling rate : 48.0 KHz
Bit depth : 16 bits
Stream size : 290 MiB (6%)
Language : Polish

Text #1
ID : 3
Format : VobSub
Codec ID : S_VOBSUB
Codec ID/Info : The same subtitle format used on DVDs
Language : Polish

Text #2
ID : 4
Format : VobSub
Codec ID : S_VOBSUB
Codec ID/Info : The same subtitle format used on DVDs
Language : English

Text #3
ID : 5
Format : UTF-8
Codec ID : S_TEXT/UTF8
Codec ID/Info : UTF-8 Plain Text[/center]
sub/Brunet Wieczorową Porą (1976)_pl.sub 8.851 MB
sub/Dark Haired Man Will Call-alE13_eng.sub 8.251 MB
sub/Dark Haired Man Will Call-alE13_eng.srt 71.412 KB
Gathering some info...

Register and log in Isohunt and see no captcha anymore!

4000 symbols left
Hash FE20442207421E3344CCBAD5157B071DE8DD6B03