New York

New York

Drama

Full description

Nirvana Unplugged In New York Mkv 480p Dts

Size 1.608 GB   5 seeders     Added 2013-01-31 20:57:21

Stream torrent
Starting‥ You need BitLord! Get it from BitLord.com
To download or stream you need BitLord. Visit them at BitLord.com
Nirvana Unplugged In New York Mkv 480p Dts

1.About a Girl
2.Come As You Are
3.Jesus Doesn't Want Me for a Sunbeam
4.The Man Who Sold the World
5.Pennyroyal Tea
6.Dumb 
7.Polly
8.On a Plain
9.Something In the Way
10.Plateau
11.Oh Me
12.Lake of Fire
13.All Apologies
14.Where Did You Sleep Last Night?
	
General 
Unique ID : 229140705151552395185160820260679670541 (0xAC62E5016BDDD07BB61A4A8186A35B0D) 
Nirvana Unplugged New York Mkv480p Dts
Format : Matroska 
Format version : Version 2 
File size : 1.50 GiB 
Duration : 1h 6mn 
Overall bit rate mode : Variable 
Overall bit rate : 3 232 Kbps 
Movie name : Nirvana Unplugged New York 
Encoded date : UTC 2013-01-31 10:48:42 
Writing application : mkvmerge v5.7.0 ('The Whirlwind') built on Jul 8 2012 20:08:51 
Writing library : libebml v1.2.3 + libmatroska v1.3.0 

Video 
ID : 1 
Format : AVC 
Format/Info : Advanced Video Codec 
Format profile : High@L4.0 
Format settings, CABAC : Yes 
Format settings, ReFrames : 3 frames 
Codec ID : V_MPEG4/ISO/AVC 
Duration : 1h 6mn 
Bit rate mode : Variable 
Bit rate : 2 414 Kbps 
Maximum bit rate : 25.0 Mbps 
Width : 720 pixels 
Height : 480 pixels 
Display aspect ratio : 4:3 
Frame rate mode : Constant 
Frame rate : 60.000 fps 
Original frame rate : 59.940 fps 
Standard : NTSC 
Color space : YUV 
Chroma subsampling : 4:2:0 
Bit depth : 8 bits 
Scan type : Progressive 
Bits/(Pixel*Frame) : 0.116 
Stream size : 1.12 GiB (75%) 
Writing library : x264 core 125 r2208 d9d2288 
Encoding settings : cabac=1 / ref=3 / deblock=1:0:0 / analyse=0x3:0x113 / me=hex / subme=7 / psy=1 / psy_rd=1.00:0.00 / mixed_ref=1 / me_range=16 / chroma_me=1 / trellis=1 / 8x8dct=1 / cqm=0 / deadzone=21,11 / fast_pskip=1 / chroma_qp_offset=-2 / threads=12 / lookahead_threads=2 / sliced_threads=0 / nr=0 / decimate=1 / interlaced=0 / bluray_compat=0 / constrained_intra=0 / bframes=3 / b_pyramid=0 / b_adapt=1 / b_bias=0 / direct=1 / weightb=1 / open_gop=0 / weightp=2 / keyint=600 / keyint_min=60 / scenecut=40 / intra_refresh=0 / rc_lookahead=40 / rc=crf / mbtree=1 / crf=20.0 / qcomp=0.60 / qpmin=0 / qpmax=69 / qpstep=4 / vbv_maxrate=25000 / vbv_bufsize=25000 / crf_max=0.0 / nal_hrd=vbr / ip_ratio=1.40 / aq=1:1.00 
Default : Yes 
Forced : No 

Audio 
ID : 2 
Format : DTS 
Format/Info : Digital Theater Systems 
Mode : 16 
Format settings, Endianness : Big 
Codec ID : A_DTS 
Duration : 1h 6mn 
Bit rate mode : Constant 
Bit rate : 755 Kbps 
Channel(s) : 6 channels 
Channel positions : Front: L C R, Side: L R, LFE 
Sampling rate : 48.0 KHz 
Bit depth : 24 bits 
Compression mode : Lossy 
Stream size : 358 MiB (23%) 
Language : English 
Default : Yes 
Forced : No		
Nirvana Unplugged New York Mkv480p Dts.mkv 1.608 GB
Gathering some info...

Register and log in Isohunt and see no captcha anymore!

4000 symbols left
Hash A4F6C8EC2F58BDEB0CD7F727C33D4FB3AE2BF70B

Related torrents for "Nirvana Unplugged In New York Mkv 480p Dts"