Cut!

Cut! (2014)

Full description

Rock of Ages - Extended Cut (HD 720p).m4v

Size 4.495 GB   0 seeders     Added 2013-02-01 01:58:32

Stream torrent
Starting‥ You need BitLord! Get it from BitLord.com
To download or stream you need BitLord. Visit them at BitLord.com
Complete name                            : Rock of Ages - Extended Cut  (HD 720p).m4v
Format                                   : MPEG-4
Format profile                           : Base Media / Version 2
Codec ID                                 : mp42
File size                                : 4.19 GiB
Duration                                 : 2h 16mn
Overall bit rate mode                    : Variable
Overall bit rate                         : 4 399 Kbps
Movie name                               : Rock of Ages
Performer                                : Tom Cruise, Bryan Cranston, Malin Åkerman, Russell Brand, Catherine Zeta-Jones, Alec Baldwin, Paul Giamatti, Diego Boneta, Julianne Hough, Erica Frene, Shane Hartline, James Martin Kelly
Genre                                    : Comedy, Drama, Musical, Romance
Recorded date                            : 2012-06-15
Encoded date                             : UTC 2012-10-29 16:39:14
Tagged date                              : UTC 2012-10-31 02:01:42
Writing application                      : HandBrake 5029svn 2012102701
Cover                                    : Yes
desc                                     : Young Drew Boley (Diego Boneta) and Sherrie Christian (Julianne Hough) fall in love during the rock music scene of 1987.

Video #1
ID                                       : 1
Format                                   : AVC
Format/Info                              : Advanced Video Codec
Format profile                           : High@L3.1
Format settings, CABAC                   : Yes
Format settings, ReFrames                : 4 frames
Codec ID                                 : avc1
Codec ID/Info                            : Advanced Video Coding
Duration                                 : 2h 16mn
Bit rate mode                            : Variable
Bit rate                                 : 3 555 Kbps
Width                                    : 1 280 pixels
Height                                   : 528 pixels
Display aspect ratio                     : 2.40:1
Frame rate mode                          : Variable
Frame rate                               : 23.976 fps
Minimum frame rate                       : 23.810 fps
Maximum frame rate                       : 24.390 fps
Color space                              : YUV
Chroma subsampling                       : 4:2:0
Bit depth                                : 8 bits
Scan type                                : Progressive
Bits/(Pixel*Frame)                       : 0.219
Stream size                              : 3.38 GiB (81%)
Writing library                          : x264 core 128
Encoding settings                        : cabac=1 / ref=4 / deblock=1:0:0 / analyse=0x3:0x133 / me=umh / subme=10 / psy=1 / psy_rd=1.00:0.15 / mixed_ref=1 / me_range=32 / chroma_me=1 / trellis=2 / 8x8dct=1 / cqm=0 / deadzone=21,11 / fast_pskip=1 / chroma_qp_offset=-3 / threads=12 / lookahead_threads=2 / sliced_threads=0 / nr=0 / decimate=1 / interlaced=0 / bluray_compat=0 / constrained_intra=0 / bframes=4 / b_pyramid=2 / b_adapt=2 / b_bias=0 / direct=3 / weightb=1 / open_gop=0 / weightp=2 / keyint=240 / keyint_min=24 / scenecut=40 / intra_refresh=0 / rc_lookahead=60 / rc=crf / mbtree=1 / crf=18.0 / qcomp=0.60 / qpmin=3 / qpmax=69 / qpstep=4 / ip_ratio=1.40 / aq=1:1.00
Encoded date                             : UTC 2012-10-29 16:39:14
Tagged date                              : UTC 2012-10-29 19:50:42
Color primaries                          : BT.709
Transfer characteristics                 : BT.709
Matrix coefficients                      : BT.709

Audio #1
ID                                       : 2
Format                                   : AAC
Format/Info                              : Advanced Audio Codec
Format profile                           : LC
Codec ID                                 : 40
Duration                                 : 2h 16mn
Bit rate mode                            : Variable
Bit rate                                 : 192 Kbps
Maximum bit rate                         : 327 Kbps
Channel(s)                               : 2 channels
Channel positions                        : Front: L R
Sampling rate                            : 48.0 KHz
Compression mode                         : Lossy
Delay relative to video                  : 83ms
Stream size                              : 191 MiB (4%)
Language                                 : English
Encoded date                             : UTC 2012-10-29 16:39:14
Tagged date                              : UTC 2012-10-29 19:50:41

Audio #2
ID                                       : 3
Format                                   : AC-3
Format/Info                              : Audio Coding 3
Mode extension                           : CM (complete main)
Format settings, Endianness              : Big
Codec ID                                 : ac-3
Duration                                 : 2h 16mn
Bit rate mode                            : Constant
Bit rate                                 : 640 Kbps
Channel(s)                               : 6 channels
Channel positions                        : Front: L C R, Side: L R, LFE
Sampling rate                            : 48.0 KHz
Bit depth                                : 16 bits
Compression mode                         : Lossy
Delay relative to video                  : 83ms
Stream size                              : 624 MiB (15%)
Language                                 : English
Encoded date                             : UTC 2012-10-29 16:39:14
Tagged date                              : UTC 2012-10-29 19:50:41		
Rock of Ages - Extended Cut (HD 720p).m4v 4.495 GB
Gathering some info...

Register and log in Isohunt and see no captcha anymore!

4000 symbols left
Hash 6FF7302D63FDBC182050E0626DC71141153505AD

Related torrents for "Rock of Ages - Extended Cut (HD 720p).m4v"

Torrent search:

hd