Justin Bieber - Boyfriend [Music Video] 1080p [Sbyky]

Size 123.444 MB   0 seeders     Added 2013-02-01 11:00:26

Stream torrent
Starting‥ You need BitLord! Get it from BitLord.com
To download or stream you need BitLord. Visit them at BitLord.com
 image

General
Complete name                            : Justin Bieber - Boyfriend [Music Video] 1080p [Sbyky].mp4
Format                                   : MPEG-4
Format profile                           : Base Media / Version 2
Codec ID                                 : mp42
File size                                : 118 MiB
Duration                                 : 3mn 30s
Overall bit rate mode                    : Variable
Overall bit rate                         : 4 691 Kbps
Encoded date                             : UTC 2012-04-30 17:18:19
Tagged date                              : UTC 2012-04-30 17:18:19
gsst                                     : 0
gstd                                     : 210626
gssd                                     : BADC21F82HH1359200461880174
gshh                                     :

Video
ID                                       : 1
Format                                   : AVC
Format/Info                              : Advanced Video Codec
Format profile                           : High@L4.0
Format settings, CABAC                   : Yes
Format settings, ReFrames                : 1 frame
Codec ID                                 : avc1
Codec ID/Info                            : Advanced Video Coding
Duration                                 : 3mn 30s
Bit rate                                 : 4 543 Kbps
Maximum bit rate                         : 8 185 Kbps
Width                                    : 1 920 pixels
Height                                   : 1 080 pixels
Display aspect ratio                     : 16:9
Frame rate mode                          : Constant
Frame rate                               : 23.976 fps
Color space                              : YUV
Chroma subsampling                       : 4:2:0
Bit depth                                : 8 bits
Scan type                                : Progressive
Bits/(Pixel*Frame)                       : 0.091
Stream size                              : 114 MiB (97%)
Tagged date                              : UTC 2012-04-30 17:18:19

Audio
ID                                       : 2
Format                                   : AAC
Format/Info                              : Advanced Audio Codec
Format profile                           : LC
Codec ID                                 : 40
Duration                                 : 3mn 30s
Bit rate mode                            : Variable
Bit rate                                 : 144 Kbps
Maximum bit rate                         : 222 Kbps
Channel(s)                               : 2 channels
Channel positions                        : Front: L R
Sampling rate                            : 44.1 KHz
Compression mode                         : Lossy
Stream size                              : 3.67 MiB (3%)
Title                                    : IsoMedia File Produced by Google, 5-11-2011
Encoded date                             : UTC 2012-04-30 17:18:19
Tagged date                              : UTC 2012-04-30 17:18:19

Shared By Sbyky 
image 
image		
Justin Bieber - Boyfriend [Music Video] 1080p [Sbyky].mp4 123.444 MB
Gathering some info...

Register and log in Isohunt and see no captcha anymore!

4000 symbols left
Hash 87267ABF2050ADCC0176B4802F3F7CC7D584837C

Related torrents for "Justin Bieber - Boyfriend [Music Video] 1080p [Sbyky]"