El Presidente 2012 CAMRip EP

Size 1.551 GB   15 seeders     Added 2013-02-01 14:53:56

Stream torrent
Starting‥ You need BitLord! Get it from BitLord.com
10
To download or stream you need BitLord. Visit them at BitLord.com
 image



El Presidente 2012 CAMRip EP


Note :

Source had a bad crop badly zoomed in and noticeable blur, audio is OOS also...

This cam is badly cropped real bad, so take it or leave it...




info:


Imdb                             : http://www.imdb.com/title/tt2477732/
Genres                           : Action | Biography | Drama
Director                         : Mark Meily
Writer                           : Mark Meily
Audio Language                   : Filipino | Tagalog
Country                          : Philippines


General
Complete name                            : El Presidente 2012 CAMRip EP.avi
Format                                   : AVI
Format/Info                              : Audio Video Interleave
File size                                : 1.44 GiB
Duration                                 : 2h 33mn
Overall bit rate                         : 1 350 Kbps
Writing application                      : VirtualDubMod

Video
ID                                       : 0
Format                                   : AVC
Format/Info                              : Advanced Video Codec
Format profile                           : High@L3.1
Format settings, CABAC                   : Yes
Format settings, ReFrames                : 3 frames
Codec ID                                 : H264
Duration                                 : 2h 33mn
Bit rate                                 : 1 148 Kbps
Width                                    : 1 280 pixels
Height                                   : 720 pixels
Display aspect ratio                     : 16:9
Frame rate                               : 25.000 fps
Color space                              : YUV
Chroma subsampling                       : 4:2:0
Bit depth                                : 8 bits
Scan type                                : Progressive
Bits/(Pixel*Frame)                       : 0.050
Stream size                              : 1.23 GiB (85%)
Writing library                          : x264 core 119 r2106kMod 07efeb4
Encoding settings                        : cabac=1 / ref=3 / deblock=1:0:0

Audio
ID                                       : 1
Format                                   : MPEG Audio
Format version                           : Version 1
Format profile                           : Layer 3
Codec ID                                 : 55
Codec ID/Hint                            : MP3
Duration                                 : 2h 33mn
Bit rate mode                            : Constant
Bit rate                                 : 192 Kbps
Channel(s)                               : 2 channels
Sampling rate                            : 44.1 KHz
Compression mode                         : Lossy
Stream size                              : 210 MiB (14%)
Alignment                                : Split accross interleaves
Interleave, duration                     : 40 ms (1.00 video frame)
Interleave, preload duration             : 500 ms
Writing library                          : LAMELAME_MAJOR_VERSI




cast:


Jeorge "ER" Ejercito Estregan as Gen.Emilio Aguinaldo y Famy
Nora Aunor as Maria Aguinaldo y Agoncillo
Cristine Reyes as Hilaria Aguinaldo y Del Rosario
Cesar Montano as Andrés Bonifacio y de Castro
Christopher De Leon as Gen. Antonio Luna

Supporting cast

Alvin Anzon as Felipe Agoncillo
John Arcilla as Mariano Trías
Bayani Agbayani as Baldomero Aguinaldo
Sunshine Cruz as Gregoria de Jesús
Wendell Ramos as Mariano Noriel
Joko Diaz as Procopio Bonifacio
Gary Estrada as Jose Tagle
Ronnie Lazaro as Candido Tirona
Ian de Leon as Artemio Ricarte
Alicia Mayer as Inang Bayan (Motherland)
Troy Montero as Frederick Funston
Ronnie Quizon as Apolinario Mabini
Felix Roco as Gregorio Del Pilar
Yul Servo as Pedro A. Paterno
Lou Veloso as Julian Felipe
Ian Veneracion as Gen.Ernesto Aguirre
Dennis Padilla as Tal Placido
Roi Vinzon as Lazaro Segovia
Gerard Ejercito as Crispulo Aguinaldo
Emilio Garcia as Pio del Pilar
Allan Paule as Tomas Mascardo
Archie Adamos as Luis Aguado
Soliman Cruz as Maximo Inocencio



plot:

The story is told in flashbacks as Emilio Aguinaldo thanks the US government for giving him the opportunity to attend 

the full restoration of Philippine independence on July 4, 1946.

The film begins with his capture by Philippine and US forces under Frederick Funston's command in 1901, 

then flashes back to 1886, when an old woman gives Aguinaldo and childhood friend Candido Tirona cryptic prophecies. 

Ten years later, Aguinaldo is inducted into the Katipunan and later assumes leadership of its Cavite chapter while 

becoming mayor of Cavite El Viejo. When trouble breaks out in Manila in late August 1896, Aguinaldo tries to assure 

the Spanish provincial government of non-interference and covertly marshals his forces despite a lack of weapons. 

Learning that the Spanish mostly put their forces in Manila, Aguinaldo finally mobilizes his troops and take the 

fight to Spanish troops in Cavite.



ScreensHot:

 
image		
/El Presidente 2012 CAMRip elite-pirates.com.avi 1.551 GB
/Torrent downloaded from AhaShare.com.txt 59 B
/torrent downloaded from elite-pirates.com.txt 664 B
Gathering some info...

Register and log in Isohunt and see no captcha anymore!

4000 symbols left
Hash 7FEE0D632499B09A8AEB335BC66EAF4474FD1F1D