imdb
rating

4.7
Graveyard Shift

Graveyard Shift (1990)

Drama, Horror

Full description
quality   hd dvdrip dvdr web-dl

Graveyard Shift (1990)-alE13

Size 2.505 GB   0 seeders     Added 2013-02-01 15:20:35

Stream torrent
Starting‥ You need BitLord! Get it from BitLord.com
To download or stream you need BitLord. Visit them at BitLord.com
[center][img]image[/img]

gatunek: Horror, 
produkcja: Japonia, USA, 
premiera: 26 października 1990 (świat) 1990-10-26 
reżyseria: Ralph S. Singleton, 
scenariusz: John Esposito , 
muzyka:Anthony Marinelli , Brian Banksna 
podstawie:Stephen King 
Czas: 01:26:19

Opis Filmu:

In a very old textile mill, with a serious rat infestation, the workers 
discover a horrifying secret deep in the basement. 

Małe miasteczko na południu USA. W otwartej ponownie, po wielu latach, 
fabryce przeróbki wełny - Tekstylia Beckmana, z powodu upałów pracuje 
się tylko na nocnej zmianie( z górn. szychcie) od 23 do 7 rano. Nowy 
właściciel zakładu Warwick (Stephen Macht) pragnąc nie dopuścić do 
zamknięcia fabryki (warunki higieniczne urągaja wszelkim normom , zatrzęsienie 
szczurów i myszy) zatrudnia tępiciela Eksterminatora Tuckera Clevelanda (Brad Dourif). 
Fabrykę otacza ponadto ponura tajemnica gnieżdżcych się w niej złych mocy. 
Pewnego ranka jeden z pracowników Jason Reed (Jonathan Emerson) obsługujący maszynę 
do wełny i pracujący ze względów na oszczędności właściciela sam ,zostaje znaleziony 
rozszarpany przez maszynę. Szczątki oblepione były szczurami.

[img]image[/img]
[img]image[/img]
[img]image[/img] 

Obsada:

Robert Alan....... Beuth Ippeston 
Stephen Macht..... Warwick 
Andrew Divoff..... Danson

Dane Techniczne:

Graveyard Shift (1990)-alE13.mkv
Format : Matroska
File size : 2.32 GiB
Duration : 1h 26mn
Overall bit rate : 3 852 Kbps
Movie name : Graveyard Shift (1990)-alE13
Encoded date : UTC 2013-01-31 15:29:31
Writing application : mkvmerge v5.8.0 
Writing library : libebml v1.2.3 + libmatroska v1.3.0

Video
ID : 1
Format : AVC
Format/Info : Advanced Video Codec
Format profile : Main@L4.0
Format settings, CABAC : Yes
Format settings, ReFrames : 2 frames
Format settings, GOP : M=4, N=16
Muxing mode : Container profile=Unknown@4.0
Codec ID : V_MPEG4/ISO/AVC
Duration : 1h 26mn
Bit rate : 3 500 Kbps
Width : 1 920 pixels
Height : 1 080 pixels
Display aspect ratio : 16:9
Frame rate mode : Variable
Frame rate : 23.976 fps
Color space : YUV
Chroma subsampling : 4:2:0
Bit depth : 8 bits
Scan type : Progressive
Bits/(Pixel*Frame) : 0.070
Stream size : 2.05 GiB (88%)
Writing library : x264 core 112 r1834 a51816a

Audio
ID : 2
Format : AC-3
Format/Info : Audio Coding 3
Mode extension : CM (complete main)
Muxing mode : Header stripping
Codec ID : A_AC3
Duration : 1h 26mn
Bit rate mode : Constant
Bit rate : 384 Kbps
Channel(s) : 6 channels
Channel positions : Front: L C R, Side: L R, LFE
Sampling rate : 48.0 KHz
Bit depth : 16 bits
Stream size : 237 MiB (10%)
Title : Original - AC3 5.1 384 kbs
Language : English

Text #1
ID : 3
Format : UTF-8
Codec ID : S_TEXT/UTF8
Codec ID/Info : UTF-8 Plain Text
Language : English

Text #2
ID : 4
Format : VobSub
Codec ID : S_VOBSUB
Codec ID/Info : The same subtitle format used on DVDs
Language : Polish

Text #3
ID : 5
Format : VobSub
Codec ID : S_VOBSUB
Codec ID/Info : The same subtitle format used on DVDs
Language : English

Menu
00:00:00.000 : en:In The Mill
00:08:28.000 : en:A Fresh Start
00:16:44.000 : en:The Exterminator
00:23:31.000 : en:Night Shift
00:28:13.000 : en:Commander of The Rat People
00:37:02.000 : en:Double Pay
00:45:36.000 : en:Clean Up Crew
00:53:13.000 : en:One Additional Service
01:01:15.000 : en:Breakdown
01:11:32.000 : en:The Inner Lair
01:17:45.000 : en:Escape Attempt[/center]
1.jpg 103.751 KB
2.jpg 65.135 KB
3.jpeg 38.077 KB
Gathering some info...

Register and log in Isohunt and see no captcha anymore!

4000 symbols left
Hash AAB860D47B24DC0C17F4AC5121FC2DDA1D7813DF

Related torrents for "Graveyard Shift (1990)-alE13"

Torrent search:

1990